Ивановский Торрент трекер
Яндекс.Погода
 

[Цитировать]
HUNTER

Одиссей / Ulysses
Страна: Италия
Жанр: приключения, семейный, мультфильм
Продолжительность: 01:28:56
Год выпуска: 1998
Перевод: Профессиональный (многоголосый закадровый)
Русские субтитры: нет

Режиссёр: Питер Чои / Peter Choi, Орландо Корради / Orlando Corradi
Описание: Царь Итаки Одиссей впадает в немилость к богам после того, как помогает грекам обманом завладеть Троей. Лишенный поддержки бога морей, он вынужден долгие годы добираться до родного острова. В этом нелегком путешествии его ждет множество опасных приключений. Он попадет на остров циклопов и его корабли подвергнутся проверке на прочность богом ветров Эолом.
Качество: DVDRip
Формат: AVI
Видео: 688x416 (1.65:1), 25 fps, XviD build 73 ~2139 kbps avg, 0.30 bit/pixel
Аудио: 48 kHz, AC3 Dolby Digital, 2/0 (L,R) ch, ~192 kbps
Субтитры: отсутствуют

Подробные технические данные

ОбщееПолное имя : H:\Ulysses.1998.dvdrip_[1.46]_[teko].aviФормат : AVIФормат/Информация : Audio Video InterleaveРазмер файла : 1,45 ГбайтПродолжительность : 1 ч. 28 м.Общий поток : 2342 Кбит/секПрограмма кодирования : VirtualDubMod 1.5.10.3 | www.virtualdub-fr.org || (build 2550/release)Библиотека кодирования : VirtualDubMod build 2550/release
ВидеоИдентификатор : 0Формат : MPEG-4 VisualПрофиль формата : Advanced Simple@L5Параметр BVOP формата : 1Параметр QPel формата : НетПараметр GMC формата : Без точки переходаПараметр матрицы формата : ВыборочнаяИдентификатор кодека : XVIDИдентификатор кодека/Подсказка : XviDПродолжительность : 1 ч. 28 м.Битрейт : 2140 Кбит/секШирина : 688 пикселейВысота : 416 пикселейСоотношение сторон : 1,654Частота кадров : 25,000 кадров/секЦветовое пространство : YUVСубдискретизация насыщенности : 4:2:0Битовая глубина : 8 битТип развёртки : ПрогрессивнаяМетод сжатия : С потерямиБит/(Пиксели*Кадры) : 0.299Размер потока : 1,33 Гбайт (91%)Библиотека кодирования : XviD 73
АудиоИдентификатор : 1Формат : AC-3Формат/Информация : Audio Coding 3Расширение режима : CM (complete main)Параметр Endianness формата : BigИдентификатор кодека : 2000Продолжительность : 1 ч. 28 м.Вид битрейта : ПостоянныйБитрейт : 192 Кбит/секКаналы : 2 каналаРасположение каналов : Front: L RЧастота : 48,0 КГцБитовая глубина : 16 битМетод сжатия : С потерямиРазмер потока : 122 Мбайт (8%)Выравнивание : Разделение по промежуткамПродолжительность промежутка : 40 мс. (1,00 видеокадр)Время предзагрузки промежутка : 500 мс.
Релиз группы:
--


Показать сообщения:    

Текущее время: 17-Дек 17:56

Часовой пояс: UTC ± 0


Вы не можете начинать темы
Вы не можете отвечать на сообщения
Вы не можете редактировать свои сообщения
Вы не можете удалять свои сообщения
Вы не можете голосовать в опросах
Вы не можете прикреплять файлы к сообщениям
Вы не можете скачивать файлы

!ВНИМАНИЕ!
Сайт не предоставляет электронные версии произведений, а занимается лишь коллекционированием и каталогизацией ссылок, присылаемых и публикуемых на форуме нашими читателями. Если вы являетесь правообладателем какого-либо представленного материала и не желаете, чтобы ссылка на него находилась в нашем каталоге, свяжитесь с нами, и мы незамедлительно удалим ее. Файлы для обмена на трекере предоставлены пользователями сайта, и администрация не несет ответственности за их содержание. Просьба не заливать файлы, защищенные авторскими правами, а также файлы нелегального содержания!