Ивановский Торрент трекер
Яндекс.Погода
 

[Цитировать]
HUNTER

Один прекрасный день / A Perfect Day
Страна: США
Жанр: драма
Год выпуска: 2006
Продолжительность: 01:27:02
Перевод: Профессиональный (многоголосый закадровый)
Cубтитры: нет
Оригинальная аудиодорожка: нет
Режиссер: Питер Левин / Peter Levin
В ролях: Роб Лоу, Фрэнсис Конрой, Пэйджет Брюстер, Кристофер Ллойд, Джуд Чикколелла, Роуэна Кинг, Кевин Данн, Meggie Geisland, Майк Пневски, Дэймон Липари.
Описание: Один прекрасный день может перевернуть всю вашу жизнь! Именно такое событие произошло с героем этой рождественской истории. Дела не ладятся у любящего отца семейства Роберта. Все его попытки найти работу оказываются провальными. И тогда, при моральной поддержке жены, Роберт решается написать свою книгу. Последняя попытка оборачивается грандиозным успехом.
Литературная карьера Роберта идет в гору, принося с собой славу и деньги. Но чем больше он погружается в свой новый образ, тем более несчастным он себя ощущает. Как вдруг в канун Рождества в его жизни появляется таинственный субъект и заставляет Роберта по-новому взглянуть на свою жизнь…
Сэмпл: http://multi-up.com/952951
Тип релиза: HDTV 1080i
Контейнер: TS
Видео: AVC, 1920x1080 (16/9), 25.000 fps, 11.2 Mbps (0.215 bit/pixel)
Аудио: MP2, 48.0 KHz, 2 ch, 192 Kbps, CBR (Russian)

MI

Общее
Идентификатор : 3 (0x3)
Полное имя : K:\МОИ РАЗДАЧИ\Один прекрасный день.TS
Формат : MPEG-TS
Размер файла : 7,41 Гбайт
Продолжительность : 1 ч. 27 м.
Режим общего битрейта : Переменный
Общий поток : 12,2 Мбит/сек
Видео
Идентификатор : 2141 (0x85D)
Идентификатор меню : 21004 (0x520C)
Формат : AVC
Формат/Информация : Advanced Video Codec
Профиль формата : Main@L4.0
Параметр CABAC формата : Да
Параметр ReFrames формата : 3 кадра
Идентификатор кодека : 27
Продолжительность : 1 ч. 27 м.
Битрейт : 11,4 Мбит/сек
Ширина : 1920 пикселей
Высота : 1080 пикселей
Соотношение сторон : 16:9
Частота кадров : 25,000 кадров/сек
Стандарт вещания : Component
Цветовое пространство : YUV
Субдискретизация насыщенности : 4:2:0
Битовая глубина : 8 бит
Тип развёртки : Чересстрочная
Порядок развёртки : Верхнее поле первое
Бит/(Пиксели*Кадры) : 0.220
Размер потока : 6,93 Гбайт (93%)
Основные цвета : BT.709
Характеристики трансфера : BT.709
Коэффициенты матрицы : BT.709
Аудио
Идентификатор : 2142 (0x85E)
Идентификатор меню : 21004 (0x520C)
Формат : MPEG Audio
Версия формата : Version 1
Профиль формата : Layer 2
Идентификатор кодека : 4
Продолжительность : 1 ч. 27 м.
Вид битрейта : Постоянный
Битрейт : 192 Кбит/сек
Каналы : 2 канала
Частота : 48,0 КГц
Метод сжатия : С потерями
Задержка видео : 80 мс.
Размер потока : 120 Мбайт (2%)
Язык : Russian

Скриншоты




Показать сообщения:    

Текущее время: 14-Дек 17:11

Часовой пояс: UTC ± 0


Вы не можете начинать темы
Вы не можете отвечать на сообщения
Вы не можете редактировать свои сообщения
Вы не можете удалять свои сообщения
Вы не можете голосовать в опросах
Вы не можете прикреплять файлы к сообщениям
Вы не можете скачивать файлы

!ВНИМАНИЕ!
Сайт не предоставляет электронные версии произведений, а занимается лишь коллекционированием и каталогизацией ссылок, присылаемых и публикуемых на форуме нашими читателями. Если вы являетесь правообладателем какого-либо представленного материала и не желаете, чтобы ссылка на него находилась в нашем каталоге, свяжитесь с нами, и мы незамедлительно удалим ее. Файлы для обмена на трекере предоставлены пользователями сайта, и администрация не несет ответственности за их содержание. Просьба не заливать файлы, защищенные авторскими правами, а также файлы нелегального содержания!