Важное объявление!
У Нас Все раздачи мультитрекерные, при нуле пиров в релизах, можете смело вставать на закачку!
 
Автор Сообщение

HUNTER

Стаж:
4 года 8 месяцев
Сообщений:
61987

Репутация: 101

[+] [-]
Вне форума [Профиль] [ЛС]

Один деньOne Day
Год выпуска: 2011
Страна: США, Великобритания
Жанр: драма, мелодрама,
Продолжительность: 01:47:13
Перевод: Дублированный
Режиссер: Лоне Шерфиг
В ролях: Энн Хэтэуэй, Джим Стёрджесс, Том Мисон, Джоди Уиттакер, Тим Ки, Рейф Сполл, Жозефин Де Ла Буме, Патришия Кларксон, Кен Стотт, Хейда Рид
Описание: Эмма — романтична, остра на язык и хочет изменить мир к лучшему. Декстер — плейбой, баловень судьбы и хочет, чтобы мир принадлежал ему. Впервые Эм и Декс встретились 15 июля на выпускном в колледже и провели вместе только один день. А потом пришла ночь, и они…решили остаться друзьями. Они будут встречаться в тот же день через год, через два. Но сколько лет должно пройти, чтобы они поверили в свою любовь и поняли, как много значил для них этот ОДИН ДЕНЬ?
Качество: BDRip720p
Формат: MKV
Видео кодек: H.264
Аудио кодек: AC3
Видео: 4749 Кбит/сек, 1280*544 (2,35:1), в 24,000 кадр/сек, AVC (High@L4.1)
Аудио: Russian, 640 Кбит/сек, 48,0 КГц, 16 бит, 6 канала(ов), AC-3 | DUB
Аудио: Ukrainian, 448 Кбит/сек, 48,0 КГц, 16 бит, 6 канала(ов), AC-3 | MVO

Дополнительная информация

Продюссер: Нина Джейкобсон, Рафаэль Бенолье, Джейн Фрейзер
Сценарий: Дэвид Николлс
Бюджет: $15 000 000
Премьера в мире: 8 августа 2011

Семпл, рейтинг

MI:

Код: copyText_writeLink('this.parentNode.parentNode.nextSibling.nextSibling');
Код:
Общее
Уникальный идентификатор         : 194623590908986151802620912635732457255 (0x926B23E1A11508868DEF57E3D30A7727)
Полное имя                       : E:\торрент\Odin.den.2011.x264.BDRip720p.mkv
Формат                           : Matroska
Размер файла                     : 4,37 Гбайт
Продолжительность                : 1 ч. 47 м.
Общий поток                      : 5835 Кбит/сек
Дата кодирования                 : UTC 2011-11-01 14:16:13
Программа кодирования            : mkvmerge v5.0.1 ('Es ist Sommer') built on Oct  9 2011 11:55:43
Библиотека кодирования           : libebml v1.2.2 + libmatroska v1.3.0
Видео
Идентификатор                    : 1
Формат                           : AVC
Формат/Информация                : Advanced Video Codec
Профиль формата                  : High@L4.1
Параметр CABAC формата           : Да
Параметр ReFrames формата        : 8 кадры
Идентификатор кодека             : V_MPEG4/ISO/AVC
Продолжительность                : 1 ч. 47 м.
Битрейт                          : 4749 Кбит/сек
Ширина                           : 1280 пикс.
Высота                           : 544 пикс.
Соотношение сторон               : 2,35:1
Частота кадров                   : 24,000 кадр/сек
Цветовое пространство            : YUV
Подвыборка цветности             : 4:2:0
Битовая глубина                  : 8 бит
Тип развёртки                    : Прогрессивная
Бит/(Пиксели*Кадры)              : 0.284
Размер потока                    : 3,47 Гбайт (79%)
Библиотека кодирования           : x264 core 119 r2106 07efeb4
Настройки программы              : cabac=1 / ref=8 / deblock=1:-2:-2 / analyse=0x3:0x113 / me=umh / subme=9 / psy=1 / psy_rd=1.00:0.15 / mixed_ref=1 / me_range=32 / chroma_me=1 / trellis=2 / 8x8dct=1 / cqm=0 / deadzone=21,11 / fast_pskip=0 / chroma_qp_offset=-3 / threads=6 / sliced_threads=0 / nr=0 / decimate=1 / interlaced=0 / bluray_compat=0 / constrained_intra=0 / bframes=6 / b_pyramid=2 / b_adapt=2 / b_bias=0 / direct=1 / weightb=1 / open_gop=0 / weightp=2 / keyint=250 / keyint_min=23 / scenecut=40 / intra_refresh=0 / rc_lookahead=60 / rc=2pass / mbtree=1 / bitrate=4749 / ratetol=1.0 / qcomp=0.65 / qpmin=10 / qpmax=51 / qpstep=4 / cplxblur=20.0 / qblur=0.5 / ip_ratio=1.40 / aq=2:1.00
Язык                             : English
Аудио #1
Идентификатор                    : 2
Формат                           : AC-3
Формат/Информация                : Audio Coding 3
Расширение режима                : CM (complete main)
Идентификатор кодека             : A_AC3
Продолжительность                : 1 ч. 47 м.
Вид битрейта                     : Постоянный
Битрейт                          : 640 Кбит/сек
Канал(ы)                         : 6 канала(ов)
Расположение каналов             : Front: L C R, Side: L R, LFE
Частота                          : 48,0 КГц
Битовая глубина                  : 16 бит
Метод сжатия                     : С потерями
Размер потока                    : 491 Мбайт (11%)
Язык                             : Russian
Аудио #2
Идентификатор                    : 3
Формат                           : AC-3
Формат/Информация                : Audio Coding 3
Расширение режима                : CM (complete main)
Идентификатор кодека             : A_AC3
Продолжительность                : 1 ч. 47 м.
Вид битрейта                     : Постоянный
Битрейт                          : 448 Кбит/сек
Канал(ы)                         : 6 канала(ов)
Расположение каналов             : Front: L C R, Side: L R, LFE
Частота                          : 48,0 КГц
Битовая глубина                  : 16 бит
Метод сжатия                     : С потерями
Размер потока                    : 344 Мбайт (8%)
Язык                             : Ukrainian

Скриншоты


-Источник:

_________________
Показать сообщения:    

Текущее время: Сегодня 08:40

Часовой пояс: GMT



Вы не можете начинать темы
Вы не можете отвечать на сообщения
Вы не можете редактировать свои сообщения
Вы не можете удалять свои сообщения
Вы не можете голосовать в опросах
Вы не можете прикреплять файлы к сообщениям
Вы не можете скачивать файлы
Наши партнеры: интернет магазин Ивановского трикотажа textilla.ru