Ивановский Торрент трекер
Яндекс.Погода
 

[Цитировать]
HUNTER

-Одинокий рейнджер / The Lone Ranger-
Год выпуска: 2013
Страна: США
Жанр: Приключения, вестерн, комедия, боевик
Продолжительность: 02:19:41
Перевод: Дублированный
Субтитры: Русские, английские-В ролях: Джонни Депп, Арми Хаммер, Том Уилкинсон, Уильям Фихтнер, Барри Пеппер, Джеймс Бэдж Дэйл, Хелена Бонем Картер, Рут Уилсон, Джеймс Фрейн, Чед Брамметт
Режиссёр: Гор Вербински-Описание:-История блюстителя закона Джона Рейда, который с помощью индейца Тонто стал легендарным мстителем в маске, стоящим на защите справедливости. Тонто с юмором и небылицами повествует о тех приключениях, которые пришлось пережить двум непохожим друг на друга героям, сведенным судьбой для того чтобы вместе сражаться против общего врага. Им приходится противостоять жадности и коррупции во времена, когда появление первых железных дорог изменило представление о власти и могуществе в мире.-Качество: BDRip 1080p
Формат: MKV
Видео кодек: AVC
Аудио кодек: AC3, DTS
Видео: MPEG-4 AVC, 11600 Кбит/с, 1920x800, 23.976 fps
Аудио: Русский (AC3, 6 ch, 640 Кбит/с), 48 Кгц
Аудио: Английский (DTS, 6 ch, 1510 Кбит/с) , 48 Кгц

Рейтинг

Рейтинг:

MI

Общее
Уникальный идентификатор : 253844994198018101958681491852079260954 (0xBEF8C47E8ABC5EA3A1F81FBD0FD9E51A)
Полное имя : C:1The.Lone.Ranger.2013.1080p.BluRay.Rus.Eng.mkv
Формат : Matroska
Версия формата : Version 2
Размер файла : 14,6 Гбайт
Продолжительность : 2 ч. 29 м.
Общий поток : 14,0 Мбит/сек
Название фильма : The Lone Ranger (2013) - Release for HDCLUB
Дата кодирования : UTC 2013-10-03 11:20:48
Программа кодирования : mkvmerge v6.3.0 ('You can't stop me!') built on Jun 28 2013 20:09:41
Библиотека кодирования : libebml v1.3.0 + libmatroska v1.4.0
Видео
Идентификатор : 1
Формат : AVC
Формат/Информация : Advanced Video Codec
Профиль формата : High@L4.1
Параметр CABAC формата : Да
Параметр ReFrames формата : 5 кадров
Идентификатор кодека : V_MPEG4/ISO/AVC
Продолжительность : 2 ч. 29 м.
Битрейт : 11,6 Мбит/сек
Ширина : 1920 пикселей
Высота : 800 пикселей
Соотношение сторон : 2,40:1
Режим частоты кадров : Постоянный
Частота кадров : 23,976 кадра/сек
Цветовое пространство : YUV
Субдискретизация насыщенности : 4:2:0
Битовая глубина : 8 бит
Тип развёртки : Прогрессивная
Бит/(Пиксели*Кадры) : 0.314
Размер потока : 12,1 Гбайт (83%)
Язык : English
Default : Да
Forced : Нет
Аудио #1
Идентификатор : 2
Формат : AC-3
Формат/Информация : Audio Coding 3
Расширение режима : CM (complete main)
Параметр Endianness формата : Big
Идентификатор кодека : A_AC3
Продолжительность : 2 ч. 29 м.
Вид битрейта : Постоянный
Битрейт : 640 Кбит/сек
Каналы : 6 каналов
Расположение каналов : Front: L C R, Side: L R, LFE
Частота : 48,0 КГц
Битовая глубина : 16 бит
Метод сжатия : С потерями
Размер потока : 685 Мбайт (5%)
Заголовок : AC3 5.1 @ 640 kbps - DUB, Blu-ray EUR
Язык : Russian
Default : Да
Forced : Нет
Аудио #2
Идентификатор : 3
Формат : DTS
Формат/Информация : Digital Theater Systems
Режим : 16
Параметр Endianness формата : Big
Идентификатор кодека : A_DTS
Продолжительность : 2 ч. 29 м.
Вид битрейта : Постоянный
Битрейт : 1509 Кбит/сек
Каналы : 6 каналов
Расположение каналов : Front: L C R, Side: L R, LFE
Частота : 48,0 КГц
Битовая глубина : 24 бит
Метод сжатия : С потерями
Размер потока : 1,58 Гбайт (11%)
Язык : English
Default : Нет
Forced : Нет
Текст #1
Идентификатор : 4
Формат : UTF-8
Идентификатор кодека : S_TEXT/UTF8
Идентификатор кодека/Информация : UTF-8 Plain Text
Заголовок : Forced
Язык : Russian
Default : Да
Forced : Нет
Текст #2
Идентификатор : 5
Формат : UTF-8
Идентификатор кодека : S_TEXT/UTF8
Идентификатор кодека/Информация : UTF-8 Plain Text
Язык : Russian
Default : Нет
Forced : Нет
Текст #3
Идентификатор : 6
Формат : UTF-8
Идентификатор кодека : S_TEXT/UTF8
Идентификатор кодека/Информация : UTF-8 Plain Text
Заголовок : Forced
Язык : English
Default : Нет
Forced : Нет
Текст #4
Идентификатор : 7
Формат : UTF-8
Идентификатор кодека : S_TEXT/UTF8
Идентификатор кодека/Информация : UTF-8 Plain Text
Заголовок : SDH
Язык : English
Default : Нет
Forced : Нет
Меню
00:00:00.000 : en:00:00:00.000
00:08:16.121 : en:00:08:16.121
00:13:38.776 : en:00:13:38.776
00:24:51.407 : en:00:24:51.407
00:29:03.033 : en:00:29:03.033
00:32:05.841 : en:00:32:05.841
00:40:32.013 : en:00:40:32.013
00:45:29.644 : en:00:45:29.644
00:53:29.665 : en:00:53:29.665
01:01:05.662 : en:01:01:05.662
01:10:01.614 : en:01:10:01.614
01:16:12.318 : en:01:16:12.318
01:24:45.455 : en:01:24:45.455
01:28:39.731 : en:01:28:39.731
01:35:35.188 : en:01:35:35.188
01:41:13.985 : en:01:41:13.985
01:46:35.806 : en:01:46:35.806
01:50:02.179 : en:01:50:02.179
01:53:55.203 : en:01:53:55.203
01:56:15.260 : en:01:56:15.260
02:01:51.095 : en:02:01:51.095
02:12:07.211 : en:02:12:07.211
02:17:13.934 : en:02:17:13.934
02:20:20.287 : en:02:20:20.287

Скриншоты



Показать сообщения:    

Текущее время: 17-Дек 14:04

Часовой пояс: UTC ± 0


Вы не можете начинать темы
Вы не можете отвечать на сообщения
Вы не можете редактировать свои сообщения
Вы не можете удалять свои сообщения
Вы не можете голосовать в опросах
Вы не можете прикреплять файлы к сообщениям
Вы не можете скачивать файлы

!ВНИМАНИЕ!
Сайт не предоставляет электронные версии произведений, а занимается лишь коллекционированием и каталогизацией ссылок, присылаемых и публикуемых на форуме нашими читателями. Если вы являетесь правообладателем какого-либо представленного материала и не желаете, чтобы ссылка на него находилась в нашем каталоге, свяжитесь с нами, и мы незамедлительно удалим ее. Файлы для обмена на трекере предоставлены пользователями сайта, и администрация не несет ответственности за их содержание. Просьба не заливать файлы, защищенные авторскими правами, а также файлы нелегального содержания!