Важное объявление!
У Нас Все раздачи мультитрекерные, при нуле пиров в релизах, можете смело вставать на закачку!
 
Автор Сообщение

Shalun

Стаж:
4 года 7 месяцев
Сообщений:
802

Репутация: 123

[+] [-]
Вне форума [Профиль] [ЛС]

-Ограбление по-итальянски / The Italian Job-Информация о фильме
Название: Ограбление по-итальянски
Оригинальное название: The Italian Job
Год выхода: 2003
Жанр: Боевик, Триллер, Криминал
Режиссер: Ф. Гэри Грей /F. Gary Gray
В ролях: Марк Уолберг /Mark Wahlberg/, Шарлиз Терон /Charlize Theron/, Дональд Сазерленд /Donald Sutherland/, Джейсон Стэтхэм /Jason Statham/, Сет Грин /Seth Green/, Мос Деф /Mos Def/, Эдвард Нортон /Edward Norton/, Фаусто Каллегарини /Fausto Callegarini/, Стефано Петронелли /Stefano Petronelli/, Фабио Скарпа /Fabio Scarpa/, ...
О фильме: Банда грабителей под руководством Чарли Крокера во всю прыть несется на Мини Куперах по улицам Лос-Анджелеса и даже заныривает в подземку. Банда стремится увезти в безопасное место добычу - сейф, набитый золотом.
В Лос-Анджелесе с его чудовищными пробками просто так не поездишь, поэтому банда предварительно позаботилась о «зеленой улице» для себя: на всех светофорах по пути их следования горит только зеленый свет. Для остальных, соответственно, горит красный, что провоцирует грандиознейшую в истории Лос-Анджелеса дорожную пробку.

Страна: США, Франция, Великобритания
Студия: Paramount Pictures, De Line Pictures
Продолжительность: 01:50:32
Перевод: Русский дублированный перевод + Оригинальная дорожка
Файл
Кодек: MKV, H.264 codec
Качество: BDRip-AVC (Исходник: Blu-ray Remux (JPN))
Видео: 1036 x 432 (2.40:1), 23.976 fps, MKV, H.264 ~ 3002 kbps avg, ~ 0.28 bit/pixel
Звук #1: 48 kHz, AC3 Dolby Digital, 3/2 (L,C,R,l,r) + LFE ch, ~384.00 kbps avg
Звук #2: 48 kHz, AC3 Dolby Digital, 3/2 (L,C,R,l,r) + LFE ch, ~384.00 kbps avg
Субтитры: Русские (полные + форсированные), Английские.

Log

---[NoImage] x264 [info]: frame I:1833 Avg QP:17.06 size: 65103
---[NoImage] x264 [info]: frame P:34439 Avg QP:18.89 size: 29526
---[NoImage] x264 [info]: frame B:122752 Avg QP:20.96 size: 11012
---[NoImage] x264 [info]: consecutive B-frames: 2.5% 3.0% 6.8% 20.6% 19.4% 33.0% 8.1% 6.6%

MediaInfo

General
Unique ID : 205303614284642900827905960781528992766 (0x9A7409B027D96FF6BF4FB082F0048BFE)
Complete name : I:OtherOgrablenie.Po.italyanski.2003.DUAL.BDRip-AVC.AC3.-HQ-ViDEO.mkv
Format : Matroska
Format version : Version 2
File size : 2.91 GiB
Duration : 1h 50mn
Overall bit rate : 3 771 Kbps
Movie name : Ograblenie Po italyanski / 2003 / Release by Vaippp / HQ-ViDEO
Encoded date : UTC 2011-07-09 05:09:25
Writing application : mkvmerge v4.8.0 ('I Got The...') сборка от May 24 2011 03:12:58
Writing library : libebml v1.2.0 + libmatroska v1.1.0
Video
ID : 1
Format : AVC
Format/Info : Advanced Video Codec
Format profile : High@L4.1
Format settings, CABAC : Yes
Format settings, ReFrames : 7 frames
Format settings, GOP : M=2, N=40
Codec ID : V_MPEG4/ISO/AVC
Duration : 1h 50mn
Bit rate : 3 002 Kbps
Width : 1 036 pixels
Height : 432 pixels
Display aspect ratio : 2.40:1
Frame rate : 23.976 fps
Color space : YUV
Chroma subsampling : 4:2:0
Bit depth : 8 bits
Scan type : Progressive
Bits/(Pixel*Frame) : 0.280
Stream size : 2.26 GiB (78%)
Title : BDRip 09/07/2011
Writing library : x264 core 115 r1995 c1e60b9
Language : English
Audio #1
ID : 2
Format : AC-3
Format/Info : Audio Coding 3
Mode extension : CM (complete main)
Codec ID : A_AC3
Duration : 1h 50mn
Bit rate mode : Constant
Bit rate : 384 Kbps
Channel(s) : 6 channels
Channel positions : Front: L C R, Side: L R, LFE
Sampling rate : 48.0 KHz
Bit depth : 16 bits
Compression mode : Lossy
Stream size : 304 MiB (10%)
Title : DUB
Language : Russian
Audio #2
ID : 3
Format : AC-3
Format/Info : Audio Coding 3
Mode extension : CM (complete main)
Codec ID : A_AC3
Duration : 1h 50mn
Bit rate mode : Constant
Bit rate : 384 Kbps
Channel(s) : 6 channels
Channel positions : Front: L C R, Side: L R, LFE
Sampling rate : 48.0 KHz
Bit depth : 16 bits
Compression mode : Lossy
Stream size : 304 MiB (10%)
Title : Original
Language : English
Text #1
ID : 4
Format : UTF-8
Codec ID : S_TEXT/UTF8
Codec ID/Info : UTF-8 Plain Text
Title : Forced
Language : Russian
Text #2
ID : 5
Format : UTF-8
Codec ID : S_TEXT/UTF8
Codec ID/Info : UTF-8 Plain Text
Title : Full
Language : Russian
Text #3
ID : 6
Format : UTF-8
Codec ID : S_TEXT/UTF8
Codec ID/Info : UTF-8 Plain Text
Language : English
Menu
00:00:00.000 : en:00:00:00.000
00:02:25.819 : en:00:02:25.819
00:05:26.624 : en:00:05:26.624
00:11:25.900 : en:00:11:25.900
00:16:48.180 : en:00:16:48.180
00:24:01.029 : en:00:24:01.029
00:30:03.391 : en:00:30:03.391
00:40:29.475 : en:00:40:29.475
00:54:58.093 : en:00:54:58.093
01:01:33.613 : en:01:01:33.613
01:08:07.465 : en:01:08:07.465
01:16:49.611 : en:01:16:49.611
01:23:26.883 : en:01:23:26.883
01:28:35.608 : en:01:28:35.608
01:34:54.320 : en:01:34:54.320
01:40:16.559 : en:01:40:16.559
Скриншоты для оценки качества:- --

_________________
Показать сообщения:    

Текущее время: Сегодня 13:26

Часовой пояс: GMT



Вы не можете начинать темы
Вы не можете отвечать на сообщения
Вы не можете редактировать свои сообщения
Вы не можете удалять свои сообщения
Вы не можете голосовать в опросах
Вы не можете прикреплять файлы к сообщениям
Вы не можете скачивать файлы
Наши партнеры: интернет магазин Ивановского трикотажа textilla.ru