Ивановский Торрент трекер
Яндекс.Погода
 

[Цитировать]
HUNTER

Ограбление по-американски / American Heist- Год выпуска: 2014
Страна: США, Россия
Жанр: Триллер, криминал, драма, боевик-Продолжительность: 1:35:03
Перевод: Профессиональный (полное дублирование) [iTunes]
Оригинальная аудиодорожка: Английская
Cубтитры: Английские {*.srt}
Навигация по главам: Присутствует-Режиссер: Сарик Андреасян / Sarik Andreasyan
В ролях: Хейден Кристенсен, Эдриан Броуди, Джордана Брюстер, Эйкон, Тори Киттлз, Луис Да Силва мл., Лэнс Э. Николс, Джон МакКоннелл, Джо Крест, Аарон В. Уильямсон и др.-Описание: У Джеймса темное прошлое, но сейчас он из всех сил пытается изменить свою жизнь — встречается с красивой девушкой, устроился работать автомехаником, мечтает о собственном бизнесе. Тем временем, его старший брат Френки, отсидевший десять лет в тюрьме, выходит на свободу. Френки пытается наладить отношения, но Джеймс не может простить брата за то, что много лет назад он втянул его в криминал, из-за чего Джеймс отсидел шестнадцать месяцев.
Однако попытки Джеймса начать новую жизнь не складываются: из-за тюремного прошлого он не может рассчитывать на хорошую работу и получает отказы в кредитовании своего бизнеса. Видя это, Френки предлагает Джеймсу «провести небольшое дельце». Он клянется, что это в последний раз и после ограбления банка в Новом Орлеане у них будут деньги, и они вернут свою жизнь, которую когда-то потеряли. В результате «небольшое дельце» станет одним из самых кровавых и драматических налетов в истории Америки…-Мировая премьера: 11 сентября, 2014 г. | Премьера в России: 22 января, 2015 г.
Бюджет: $10 000 000
Сборы в России: $2 237 561
Ограничение по возрасту: 16+
-Качество видео: BDRip 720p
Формат видео: MKV
Видео: 1280x534 (2.40:1), 23.976 fps, x264 ~8961 kbps avg, 0.547 bit/pixel
Аудио#1: 48 kHz, AC3 Dolby Digital, 3/2 (L,C,R,l,r) + LFE ch, ~384 kbps | Dub
Аудио#2: 48 kHz, AC3 Dolby Digital, 3/2 (L,C,R,l,r) + LFE ch, ~640 kbps | Original Eng

Интересные факты

  • Во время ограбления, когда грабители стоят перед дверью хранилища, заставляя менеджера банка ввести код, за ними закрывается защитная дверь-решетка. В следующем кадре, в ракурсе из хранилища, видно что эта дверь распахнута настежь.
  • Когда Джеймс выбегает из банка, чтобы угнать новое авто, по машине стреляют полицейские и разбивают лобовое стекло. В следующих сценах оно целое.

Видеоряд от JewelBox

[color=black]American Heist 2014 720p BluRay DD5.1 x264-JewelBox
CONTAINER FORMAT..: Matroska
SIZE..............: 6.38 GiB
RUNTIME...........: 1:35:03
FRAMERATE.........: 23.976 fps
RESOLUTION........: 1280x534
ASPECT RATIO......: 2.40:1
VIDEO CODEC.......: x264, High@L4.1, ref=11
VIDEO BITRATE.....: 8961 Kbps
AUDIO.............: English AC-3 6ch @ 640 Kbps
SUBTITLES.........: Eng, Eng SDH, Spa (.srt)
CHAPTERS..........: Included
SOURCE............: American Heist 2014 1080p Blu-ray AVC DTS-HD MA 5.1-TruckerBoys (thx!)
ENCODER...........: Juvelir
RELEASE DATE......: 29/02/2016
Notes:
* Debanded intro and two scenes with overview top.
x264 [info]: frame I:1005  Avg QP:12.54  size:148649
x264 [info]: frame P:27282 Avg QP:13.39  size: 81101
x264 [info]: frame B:108447 Avg QP:14.90  size: 37124
x264 [info]: consecutive B-frames:  1.4%  1.8%  6.1% 13.9% 17.0% 48.2%  5.6%  1.4%  0.9%  2.8%  0.5%  0.3%
kb/s:8960.87[/color]

Доп. информация

  • Релиз специально для -
  • Энкод c лучшего трансфера. Пофиксены грязные пиксели на вступительных лого, а также убран бандинг там же и ещё в двух эпизодах в конце и начале фильма.

MediaInfo

[color=black]General
Unique ID                   : 229647863851293266704531295538096250971 (0xACC491DC282710C6822FC6D3FD3A205B)
Complete name               : American.Heist.2014.RUS.720p.BluRay.DD5.1.x264-tRuAVC.mkv
Format                      : Matroska
Format version              : Version 2
File size                   : 6.63 GiB
Duration                    : 1h 35mn
Overall bit rate            : 9 986 Kbps
Movie name                  : American Heist (2014) - BDRip 720p © Juvelir
Encoded date                : UTC 2016-03-04 22:37:33
Writing application         : mkvmerge v7.8.0 ('River Man') 32bit built on Apr  3 2015 12:11:22
Writing library             : libebml v1.3.1 + libmatroska v1.4.2
Video
ID                          : 1
Format                      : AVC
Format/Info                 : Advanced Video Codec
Format profile              : High@L4.1
Format settings, CABAC      : Yes
Format settings, ReFrames   : 11 frames
Codec ID                    : V_MPEG4/ISO/AVC
Duration                    : 1h 35mn
Bit rate                    : 8 763 Kbps
Width                       : 1 280 pixels
Height                      : 534 pixels
Display aspect ratio        : 2.40:1
Frame rate mode             : Constant
Frame rate                  : 23.976 (24000/1001) fps
Color space                 : YUV
Chroma subsampling          : 4:2:0
Bit depth                   : 8 bits
Scan type                   : Progressive
Bits/(Pixel*Frame)          : 0.535
Stream size                 : 5.82 GiB (88%)
Title                       : American Heist 2014 720p BluRay DD5.1 x264-JewelBox
Writing library             : x264 core 148 r2665kMod a01e339
Encoding settings           : cabac=1 / ref=11 / deblock=1:-3:-2 / analyse=0x3:0x133 / me=umh / subme=11 / psy=1 / fade_compensate=0.00 / psy_rd=1.05:0.00 / mixed_ref=1 / me_range=48 / chroma_me=1 / trellis=2 / 8x8dct=1 / cqm=0 / deadzone=21,11 / fast_pskip=0 / chroma_qp_offset=-2 / threads=6 / lookahead_threads=1 / sliced_threads=0 / nr=0 / decimate=1 / interlaced=0 / bluray_compat=0 / constrained_intra=0 / fgo=0 / bframes=11 / b_pyramid=2 / b_adapt=2 / b_bias=0 / direct=3 / weightb=1 / open_gop=0 / weightp=2 / keyint=240 / keyint_min=23 / scenecut=40 / intra_refresh=0 / rc_lookahead=60 / rc=crf / mbtree=0 / crf=14.6000 / qcomp=0.65 / qpmin=0 / qpmax=69 / qpstep=4 / vbv_maxrate=62500 / vbv_bufsize=78125 / crf_max=0.0 / nal_hrd=none / filler=0 / ip_ratio=1.35 / pb_ratio=1.30 / aq=1:1.10 / zones=131024,136734,crf=25
Language                    : English
Default                     : Yes
Forced                      : Yes
Color range                 : Limited
Color primaries             : BT.709
Transfer characteristics    : BT.709
Matrix coefficients         : BT.709
Audio #1
ID                          : 2
Format                      : AC-3
Format/Info                 : Audio Coding 3
Mode extension              : CM (complete main)
Format settings, Endianness : Big
Codec ID                    : A_AC3
Duration                    : 1h 35mn
Bit rate mode               : Constant
Bit rate                    : 384 Kbps
Channel(s)                  : 6 channels
Channel positions           : Front: L C R, Side: L R, LFE
Sampling rate               : 48.0 KHz
Frame rate                  : 31.250 fps (1536 spf)
Compression mode            : Lossy
Stream size                 : 261 MiB (4%)
Title                       : Dub (iTunes)
Language                    : Russian
Default                     : Yes
Forced                      : No
Audio #2
ID                          : 3
Format                      : AC-3
Format/Info                 : Audio Coding 3
Mode extension              : CM (complete main)
Format settings, Endianness : Big
Codec ID                    : A_AC3
Duration                    : 1h 35mn
Bit rate mode               : Constant
Bit rate                    : 640 Kbps
Channel(s)                  : 6 channels
Channel positions           : Front: L C R, Side: L R, LFE
Sampling rate               : 48.0 KHz
Frame rate                  : 31.250 fps (1536 spf)
Compression mode            : Lossy
Stream size                 : 435 MiB (6%)
Title                       : Original
Language                    : English
Default                     : No
Forced                      : No
Text #1
ID                          : 4
Format                      : UTF-8
Codec ID                    : S_TEXT/UTF8
Codec ID/Info               : UTF-8 Plain Text
Language                    : English
Default                     : No
Forced                      : No
Text #2
ID                          : 5
Format                      : UTF-8
Codec ID                    : S_TEXT/UTF8
Codec ID/Info               : UTF-8 Plain Text
Title                       : SDH
Language                    : English
Default                     : No
Forced                      : No
Menu
00:00:00.000                : :Chapter 1
00:05:55.563                : :Chapter 2
00:13:02.072                : :Chapter 3
00:17:26.045                : :Chapter 4
00:24:10.907                : :Chapter 5
00:30:13.019                : :Chapter 6
00:36:29.437                : :Chapter 7
00:41:00.166                : :Chapter 8
00:49:03.857                : :Chapter 9
00:55:41.838                : :Chapter 10
00:59:41.244                : :Chapter 11
01:06:06.754                : :Chapter 12
01:12:56.455                : :Chapter 13
01:18:54.104                : :Chapter 14
01:25:43.638                : :Chapter 15
01:31:05.460                : :Chapter 16[/color]

Скриншоты

Source / JewelBox / FTO (MPEG-2 source)-





Показать сообщения:    

Текущее время: 21-Окт 16:52

Часовой пояс: UTC - 1


Вы не можете начинать темы
Вы не можете отвечать на сообщения
Вы не можете редактировать свои сообщения
Вы не можете удалять свои сообщения
Вы не можете голосовать в опросах
Вы не можете прикреплять файлы к сообщениям
Вы не можете скачивать файлы

!ВНИМАНИЕ!
Сайт не предоставляет электронные версии произведений, а занимается лишь коллекционированием и каталогизацией ссылок, присылаемых и публикуемых на форуме нашими читателями. Если вы являетесь правообладателем какого-либо представленного материала и не желаете, чтобы ссылка на него находилась в нашем каталоге, свяжитесь с нами, и мы незамедлительно удалим ее. Файлы для обмена на трекере предоставлены пользователями сайта, и администрация не несет ответственности за их содержание. Просьба не заливать файлы, защищенные авторскими правами, а также файлы нелегального содержания!