Ивановский Торрент трекер
Яндекс.Погода
 

[Цитировать]
HUNTER

Ограбление казино / Killing Them Softly-«In America you're on your own»-
Год выпуска: 2012
Страна: США
Жанр: триллер, драма, криминал
Продолжительность: 01:33:15
Перевод: Профессиональный (дублированный) [лицензия]-Режиссер: Эндрю Доминик
Сценарий: Эндрю Доминик, Джордж В. Хиггинс-В ролях: Брэд Питт / Brad Pitt (Jackie), Ричард Дженкинс / Richard Jenkins (Driver), Джеймс Гандольфини / James Gandolfini (Mickey), Рэй Лиотта / Ray Liotta (Markie Trattman), Скут МакНэйри / Scoot McNairy (Frankie), Бен Мендельсон / Ben Mendelsohn (Russell), Винсент Куратола / Vincent Curatola (Johnny Amato), Тревор Лонг / Trevor Long (Steve Caprio), Макс Каселла / Max Casella (Barry Caprio), Сэм Шепард / Sam Shepard (Dillon)-Описание: Во время подпольной игры в покер совершено ограбление, и угроза повисла над всем воровским сообществом. Воротилы мафии рассчитывают, что Джеки Коган найдет виновных. Однако, вращаясь среди нерешительных заказчиков, жуликов-ростовщиков, усталых убийц и тех, кто спланировал «дело», даже специалисту трудно сохранить контроль над ситуацией…-Бюджет: $15 000 000
Сборы в США: $14 940 448
Сборы в мире: + $19 427 505 = $34 367 953
Сборы в России: $2 272 277
Зрители: Россия 298.4 тыс., Испания 229.2 тыс., Франция 212.4 тыс.-Качество: DVD5
Формат: MPEG-PS
Видео кодек: MPEG-2 Video
Аудио кодеk: AC3
Видео: 720x576 (16:9), 25.000 fps, MPEG-2 Video, 5 673 Kbps
Аудио: Аудио #1: AC3, 448 Kbps, 48.0 KHz, 6 ch

-

МедиаИнфо

Код: copyText_writeLink('this.parentNode.parentNode.nextSibling.nextSibling'); General
Complete name : VTS_01_1.VOB
Format : MPEG-PS
File size : 1 024 MiB
Duration : 22mn 54s
Overall bit rate : 6 246 Kbps
Video
ID : 224 (0xE0)
Format : MPEG Video
Format version : Version 2
Format profile : Main@Main
Format settings, BVOP : Yes
Format settings, Matrix : Default
Format settings, GOP : M=3, N=15
Duration : 22mn 54s
Bit rate mode : Variable
Bit rate : 5 673 Kbps
Nominal bit rate : 8 200 Kbps
Width : 720 pixels
Height : 576 pixels
Display aspect ratio : 16:9
Frame rate : 25.000 fps
Standard : PAL
Color space : YUV
Chroma subsampling : 4:2:0
Bit depth : 8 bits
Scan type : Interlaced
Scan order : Top Field First
Bits/(Pixel*Frame) : 0.547
Stream size : 930 MiB (91%)
Audio
ID : 128 (0x80)
Format : AC-3
Format/Info : Audio Coding 3
Mode extension : CM (complete main)
Duration : 22mn 54s
Bit rate mode : Constant
Bit rate : 448 Kbps
Channel(s) : 6 channels
Channel positions : Front: L C R, Side: L R, LFE
Sampling rate : 48.0 KHz
Bit depth : 16 bits
Stream size : 73.4 MiB (7%)
Menu

Знаете ли Вы, что...

★ Зои Салдана рассматривалась на одну из ролей.
★ Марк Руффало, Хавьер Бардем и Сэм Рокуэлл были рассмотрены в качестве кандидатов на различные роли.
-
- -
Показать сообщения:    

Текущее время: 19-Окт 19:12

Часовой пояс: UTC - 1


Вы не можете начинать темы
Вы не можете отвечать на сообщения
Вы не можете редактировать свои сообщения
Вы не можете удалять свои сообщения
Вы не можете голосовать в опросах
Вы не можете прикреплять файлы к сообщениям
Вы не можете скачивать файлы

!ВНИМАНИЕ!
Сайт не предоставляет электронные версии произведений, а занимается лишь коллекционированием и каталогизацией ссылок, присылаемых и публикуемых на форуме нашими читателями. Если вы являетесь правообладателем какого-либо представленного материала и не желаете, чтобы ссылка на него находилась в нашем каталоге, свяжитесь с нами, и мы незамедлительно удалим ее. Файлы для обмена на трекере предоставлены пользователями сайта, и администрация не несет ответственности за их содержание. Просьба не заливать файлы, защищенные авторскими правами, а также файлы нелегального содержания!