Огонь на поражение / Перестрелка / The Shooting (Монте Хеллман / Monte Hellman) [1966, США, вестерн, BDRemux 1080p] [Criterion Collection] DVO + Sub Eng + Original Eng :: Ивановский Торрент трекер
Важное объявление!
У Нас Все раздачи мультитрекерные, при нуле пиров в релизах, можете смело вставать на закачку!
Статистика раздачи
Размер:     |    Зарегистрирован:     |    Скачан:     |   
Нет
 
     
 
 
Автор Сообщение

HUNTER

Стаж:
4 года 11 месяцев
Сообщений:
66090

Репутация: 101

[+] [-]
Вне форума [Профиль] [ЛС]

Огонь на поражение / The Shooting
Страна: США
Жанр: вестерн
Год выпуска: 1966
Продолжительность: 01:21:13
Перевод: Профессиональный (двухголосый закадровый) НТВ
Cубтитры: английские
Оригинальная аудиодорожка: английский-Режиссер: Монте Хеллман / Monte Hellman
В ролях: Джек Николсон, Уоррен Оутс, Милли Перкинс, Уилл Хатчинс, Джеймс Кэмпбелл, Б.Дж. Мерхолц, Гай Эль Цоси, Уолли Мун, Брэндон Кэрролл, Уильям Маклпранг, Чарльз Истмэн
Описание: Охотник Уиллетт Гашад возвращается в поселок старателей в поисках своего брата и находит там могилу своего лучшего друга. Обнаружив в поселке напарника друга Коули, Гашад узнает от него, что прииск подвергся нападению бандитов, от которых он прячется в шахте уже несколько дней. В это время в поселок неожиданно является девушка, вооруженная кольтом. Она просит мужчин провести её через пустыню в штат Юта, обещая хорошо заплатить. Гашад и Коули соглашаются. В пути Уиллетт начинает понимать, что они кого-то преследуют...
IMDb || КиноПоиск-Тип релиза: BDRemux 1080p
Контейнер: MKV
Видео: MPEG-4 AVC Video, 1920x1080 at 23.976 fps, 23380 kbps
Аудио#1: Russian: 48 kHz, AC3, 2.0 ch, 192 kbps
Аудио#2: English: 48 kHz, LPCM, 1.0 ch, 1152 kbps
Аудио#3: English: 48 kHz, AC3, 1.0 ch, 192 kbps |Commentary by Hellman, film historians Krohn and Lucas
Формат субтитров: softsub (SRT)
Сэмпл

MediaInfo

General
Unique ID : 215464609703260283847127979644987387374 (0xA218F970DB91DF428CF01E5DE8B02DEE)
Complete name : I:\Огонь на поражение\The.Shooting.1966.Criterion.BDRemux. rutracker.mkv
Format : Matroska
Format version : Version 2
File size : 14.1 GiB
Duration : 1h 21mn
Overall bit rate mode : Variable
Overall bit rate : 24.9 Mbps
Movie name : Release for RuTracker
Writing application : mkvmerge v5.0.1 ('Es ist Sommer') built on Nov 6 2011 16:23:40
Writing library : libebml v1.2.2 + libmatroska v1.3.0
Video
ID : 1
Format : AVC
Format/Info : Advanced Video Codec
Format profile : High@L4.1
Format settings, CABAC : Yes
Format settings, ReFrames : 4 frames
Codec ID : V_MPEG4/ISO/AVC
Duration : 1h 21mn
Bit rate mode : Variable
Maximum bit rate : 37.0 Mbps
Width : 1 920 pixels
Height : 1 080 pixels
Display aspect ratio : 16:9
Frame rate mode : Constant
Frame rate : 23.976 fps
Color space : YUV
Chroma subsampling : 4:2:0
Bit depth : 8 bits
Scan type : Progressive
Title : The.Shooting.1966.Criterion.BDRemux. rutracker
Language : English
Default : Yes
Forced : No
Audio #1
ID : 2
Format : AC-3
Format/Info : Audio Coding 3
Mode extension : CM (complete main)
Format settings, Endianness : Big
Codec ID : A_AC3
Duration : 1h 21mn
Bit rate mode : Constant
Bit rate : 192 Kbps
Channel(s) : 2 channels
Channel positions : Front: L R
Sampling rate : 48.0 KHz
Bit depth : 16 bits
Compression mode : Lossy
Stream size : 112 MiB (1%)
Title : нтв
Language : Russian
Default : Yes
Forced : No
Audio #2
ID : 3
Format : PCM
Codec ID : A_PCM/INT/LIT
Duration : 1h 21mn
Bit rate mode : Constant
Sampling rate : 48.0 KHz
Bit depth : 24 bits
Language : English
Default : No
Forced : No
Audio #3
ID : 4
Format : AC-3
Format/Info : Audio Coding 3
Mode extension : CM (complete main)
Format settings, Endianness : Big
Codec ID : A_AC3
Duration : 1h 21mn
Bit rate mode : Constant
Bit rate : 192 Kbps
Channel(s) : 1 channel
Channel positions : Front: C
Sampling rate : 48.0 KHz
Bit depth : 16 bits
Compression mode : Lossy
Stream size : 112 MiB (1%)
Title : commentary
Language : English
Default : No
Forced : No
Text
ID : 5
Format : UTF-8
Codec ID : S_TEXT/UTF8
Codec ID/Info : UTF-8 Plain Text
Language : English
Default : No
Forced : No
Menu
00:00:00.000 : :1.Coley's story
00:09:42.790 : :2.The woman
00:20:43.242 : :3.On the trail
00:27:05.874 : :4.Being followed
00:37:09.685 : :5.Billy Spear
00:47:14.081 : :6.Fresh tracks
00:56:39.729 : :7.The reason for the hunt
01:05:57.495 : :8.Shooting
01:14:20.622 : :9.End of the line

_________________
Показать сообщения:    

Текущее время: Сегодня 00:24

Часовой пояс: GMT



Вы не можете начинать темы
Вы не можете отвечать на сообщения
Вы не можете редактировать свои сообщения
Вы не можете удалять свои сообщения
Вы не можете голосовать в опросах
Вы не можете прикреплять файлы к сообщениям
Вы не можете скачивать файлы