Ивановский Торрент трекер
Яндекс.Погода
 

[Цитировать]
димитри37

Огонь Кристиана Лубутена 3D / FEU: Crazy Horse Paris
Страна: Франция
Жанр: мюзикл
Год выпуска: 2012
Продолжительность: 01:20:24
Перевод: Профессиональный (многоголосый закадровый) лицензия
Cубтитры: нет
Режиссер: Бруно Халлин / Bruno Hullin
В ролях: Люмина Классика, Нука Карамель, Бейби Лайт, Кристиан Лубутен, Лив Менот, Дива Новита, Фьямма Роза, Ясна Снигура, Псикко Тико, Лоа Ваина
Описание: Знаменитый создатель туфель с красной подошвой ставит шоу в известном парижском клубе «CRAZY HORSE PARIS». По словам самого Лубутена, танцеальные номера в парижском кабаре «это памятник, памятник танцу, фантастическая идея праздника для женщин от женщин».
Сэмпл: http://multi-up.com/865622

Качество видео: HDRip [источник BluRay 1080p]
Формат видео: AVI
Видео: Xvid 720x384, 1977Kbps. 23.976 fps
Аудио: Dolby AC3, 448kbps, 6ch, 48000Hz

Справка

Crazy Horse (фр. Le Crazy Horse de Paris — дикая, необъезженная лошадь) — знаменитое парижское кабаре, основанное 19 мая 1951 году.
Создателем кабаре стал Ален Бернарден. Он изначально отказался от узкой направленности представления и стал включать в программу номера клоунов, мимов, иллюзионистов, жонглёров, применять лазерные эффекты, запускать акробатические номера танцовщиц с использованием страховочных ремней. Яркие запоминающиеся выступления с огнём, фокусы, отточенная хореография, быстро выделили «Crazy Horse» из десятков однообразных проектов.
Отличительной чертой, изюминкой, стал принцип отбора танцоров и танцовщиц. Они должны были обладать весьма жестким, ставшим позже характерно узнаваемым, «фирменным» набором внешних данных, таких как высокий рост, стройность, подтянутость, общая схожесть черт и даже объём и форма груди.
Бренд «Crazy Horse» используется рядом клубов и кабаре по всему миру.

MediaInfo

Общее
Полное имя : D:\Ogon.Kristiana.LaButena_2012.HDRip.avi
Формат : AVI
Формат/Информация : Audio Video Interleave
Размер файла : 1,37 Гбайт
Продолжительность : 1 ч. 20 м.
Общий поток : 2434 Кбит/сек
Программа кодирования : VirtualDubMod 1.5.10.2 (build 2540/release)
Библиотека кодирования : VirtualDubMod build 2540/release
Видео
Идентификатор : 0
Формат : MPEG-4 Visual
Профиль формата : Advanced Simple@L5
Параметр BVOP формата : 2
Параметр QPel формата : Нет
Параметр GMC формата : Без точки перехода
Параметр матрицы формата : Default (MPEG)
Идентификатор кодека : XVID
Идентификатор кодека/Подсказка : XviD
Продолжительность : 1 ч. 20 м.
Битрейт : 1977 Кбит/сек
Ширина : 720 пикселей
Высота : 384 пикселя
Соотношение сторон : 1,85:1
Частота кадров : 23,976 кадра/сек
Цветовое пространство : YUV
Субдискретизация насыщенности : 4:2:0
Битовая глубина : 8 бит
Тип развёртки : Прогрессивная
Метод сжатия : С потерями
Бит/(Пиксели*Кадры) : 0.298
Размер потока : 1,11 Гбайт (81%)
Библиотека кодирования : XviD 1.2.1 (UTC 2008-12-04)
Аудио
Идентификатор : 1
Формат : AC-3
Формат/Информация : Audio Coding 3
Расширение режима : CM (complete main)
Параметр Endianness формата : Big
Идентификатор кодека : 2000
Продолжительность : 1 ч. 20 м.
Вид битрейта : Постоянный
Битрейт : 448 Кбит/сек
Каналы : 6 каналов
Расположение каналов : Front: L C R, Side: L R, LFE
Частота : 48,0 КГц
Битовая глубина : 16 бит
Метод сжатия : С потерями
Размер потока : 258 Мбайт (18%)
Выравнивание : Разделение по промежуткам
Продолжительность промежутка : 42 мс. (1,00 видеокадр)
Время предзагрузки промежутка : 500 мс.

Скриншот c названием фильма

Скриншоты

-


Показать сообщения:    

Текущее время: 15-Дек 04:40

Часовой пояс: UTC ± 0


Вы не можете начинать темы
Вы не можете отвечать на сообщения
Вы не можете редактировать свои сообщения
Вы не можете удалять свои сообщения
Вы не можете голосовать в опросах
Вы не можете прикреплять файлы к сообщениям
Вы не можете скачивать файлы

!ВНИМАНИЕ!
Сайт не предоставляет электронные версии произведений, а занимается лишь коллекционированием и каталогизацией ссылок, присылаемых и публикуемых на форуме нашими читателями. Если вы являетесь правообладателем какого-либо представленного материала и не желаете, чтобы ссылка на него находилась в нашем каталоге, свяжитесь с нами, и мы незамедлительно удалим ее. Файлы для обмена на трекере предоставлены пользователями сайта, и администрация не несет ответственности за их содержание. Просьба не заливать файлы, защищенные авторскими правами, а также файлы нелегального содержания!