Ивановский Торрент трекер
Яндекс.Погода
 

[Цитировать]
HUNTER

Огонь и стрела / The Flame and the Arrow
-Страна: США
Жанр: приключения, мелодрама
Год выпуска: 1950
Продолжительность: 01:28:32-Перевод: Профессиональный (двухголосый закадровый)
Cубтитры:английские
Оригинальная аудиодорожка: английский-Режиссер: Жак Турнер /Jacques Tourneur-В ролях: Берт Ланкастер, Вирджиния Майо, Роберт Даглас, Элайн МакМэхэн, Фрэнк Олленби, Ник Крэйвэт, Линн Бэггетт, Гордон Геберт, Норман Ллойд, Виктор Килиэн.-Описание:
XII век. Вся северная Италия находится год гнетом немецкого императора Фредерико Барбаросе, но горные жители Ломбардии решили сопротивляться гнету иноземного короля и одним из них стал меткий лучник Дардо, которого знают и любят все в округе, и который один в горах воспитывает сына Руди - смелого мальчишку, мать которого пять лет назад ушла от них к жестокому графу Уильриху по прозвищу "Ястреб". Однажды на дворцовой площади, меткой стрелой Дардо подстрелен любимый сокол графа Ульриха. За этот поступок, разгневанный граф приказал, отобрать сына у мятежного горца и запереть в своем замке, а самого Дардо поймать и повесить. Приспешники графа схватили парнишку, и стали преследовать отца, но к счастью ему удалось скрыться. Раненый стрелой он получил приют у друзей, где решил составить план похищения сына из плена, отмщения ненавистному графу Ульриху, и освобождения родной Ломбардии от немецкого гнета...-Сэмпл: Скачать-Тип релиза: HDTVRip 720p
Контейнер: MKV-Видео: 980x720 (4:3); 3 720 Kbps; 23.976 fps; 0.220 bpp
Аудио 1: Russian; AC3; 48.0 KHz; 2ch; 192 Kbps
Аудио 2: English; AC3; 48.0 KHz; 2ch; 192 Kbps
Формат субтитров: softsub (SRT)

MediaInfo

Format : Matroska
Format version : Version 4 / Version 2
File size : 2.59 GiB
Duration : 1h 28mn
Overall bit rate : 4 187 Kbps
Movie name : 1950-The.Flame.and.the.Arrow.HDTV.x264.720p.AC3.[DMMD]
Encoded date : UTC 2015-03-15 12:39:54
Writing application : mkvmerge v7.2.0 ('On Every Street') 64bit built on Sep 13 2014 15:52:10
Writing library : libebml v1.3.0 + libmatroska v1.4.1
Attachements : Flame_and_arrow_(1950).jpg / flame_and_the_arrow_xlg.jpg / Poster.jpg / the-flame-and-the-arrow-movie-poster-1950-1020207347.jpg
_STATISTICS_WRITING_APP : mkvmerge v7.2.0 ('On Every Street') 64bit built on Sep 13 2014 15:52:10
_STATISTICS_WRITING_DATE_UTC : 2015-03-15 12:39:54
_STATISTICS_TAGS : BPS DURATION NUMBER_OF_FRAMES NUMBER_OF_BYTES
DURATION : 01:28:32.384000000
NUMBER_OF_FRAMES : 166012
NUMBER_OF_BYTES : 127497216
Video
ID : 1
Format : AVC
Format/Info : Advanced Video Codec
Format profile : High@L4.1
Format settings, CABAC : Yes
Format settings, ReFrames : 11 frames
Codec ID : V_MPEG4/ISO/AVC
Duration : 1h 28mn
Bit rate : 3 720 Kbps
Width : 980 pixels
Height : 720 pixels
Display aspect ratio : 4:3
Frame rate mode : Constant
Frame rate : 23.976 fps
Color space : YUV
Chroma subsampling : 4:2:0
Bit depth : 8 bits
Scan type : Progressive
Bits/(Pixel*Frame) : 0.220
Stream size : 2.30 GiB (89%)
Writing library : x264 core 142 r2479kMod dd79a61
Encoding settings : cabac=1 / ref=11 / deblock=1:-3:-3 / analyse=0x3:0x133 / me=umh / subme=11 / psy=1 / fade_compensate=0.00 / psy_rd=1.12:0.00 / mixed_ref=1 / me_range=24 / chroma_me=1 / trellis=2 / 8x8dct=1 / cqm=0 / deadzone=21,11 / fast_pskip=0 / chroma_qp_offset=-2 / threads=6 / lookahead_threads=1 / sliced_threads=0 / nr=0 / decimate=0 / interlaced=0 / bluray_compat=0 / constrained_intra=0 / fgo=0 / bframes=7 / b_pyramid=2 / b_adapt=2 / b_bias=0 / direct=3 / weightb=1 / open_gop=0 / weightp=2 / keyint=250 / keyint_min=25 / scenecut=40 / intra_refresh=0 / rc_lookahead=60 / rc=crf / mbtree=1 / crf=17.3000 / qcomp=0.72 / qpmin=0 / qpmax=69 / qpstep=4 / ip_ratio=1.40 / aq=1:0.85
Default : Yes
Forced : No
Audio #1
ID : 2
Format : AC-3
Format/Info : Audio Coding 3
Mode extension : CM (complete main)
Format settings, Endianness : Big
Codec ID : A_AC3
Duration : 1h 28mn
Bit rate mode : Constant
Bit rate : 192 Kbps
Channel(s) : 2 channels
Channel positions : Front: L R
Sampling rate : 48.0 KHz
Bit depth : 16 bits
Compression mode : Lossy
Stream size : 122 MiB (5%)
Title : DVO Светла
Language : Russian
Default : Yes
Forced : No
Audio #2
ID : 3
Format : AC-3
Format/Info : Audio Coding 3
Mode extension : CM (complete main)
Format settings, Endianness : Big
Codec ID : A_AC3
Duration : 1h 28mn
Bit rate mode : Constant
Bit rate : 192 Kbps
Channel(s) : 2 channels
Channel positions : Front: L R
Sampling rate : 48.0 KHz
Bit depth : 16 bits
Compression mode : Lossy
Stream size : 122 MiB (5%)
Language : English
Default : No
Forced : No
Text #1
ID : 4
Format : UTF-8
Codec ID : S_TEXT/UTF8
Codec ID/Info : UTF-8 Plain Text
Language : Spanish
Default : No
Forced : No
Text #2
ID : 5
Format : UTF-8
Codec ID : S_TEXT/UTF8
Codec ID/Info : UTF-8 Plain Text
Language : English
Default : No
Forced : No
Text #3
ID : 6
Format : UTF-8
Codec ID : S_TEXT/UTF8
Codec ID/Info : UTF-8 Plain Text
Language : French
Default : No
Forced : No
Menu
00:00:00.000 : en:Chapter 1
00:12:28.367 : en:Chapter 2
00:18:21.700 : en:Chapter 3
00:27:50.233 : en:Chapter 4
00:35:52.233 : en:Chapter 5
00:45:36.200 : en:Chapter 6
00:53:43.867 : en:Chapter 7
01:03:48.000 : en:Chapter 8
01:12:53.900 : en:Chapter 9
01:23:09.533 : en:Chapter 10

Скриншоты



Показать сообщения:    

Текущее время: 17-Дек 00:15

Часовой пояс: UTC ± 0


Вы не можете начинать темы
Вы не можете отвечать на сообщения
Вы не можете редактировать свои сообщения
Вы не можете удалять свои сообщения
Вы не можете голосовать в опросах
Вы не можете прикреплять файлы к сообщениям
Вы не можете скачивать файлы

!ВНИМАНИЕ!
Сайт не предоставляет электронные версии произведений, а занимается лишь коллекционированием и каталогизацией ссылок, присылаемых и публикуемых на форуме нашими читателями. Если вы являетесь правообладателем какого-либо представленного материала и не желаете, чтобы ссылка на него находилась в нашем каталоге, свяжитесь с нами, и мы незамедлительно удалим ее. Файлы для обмена на трекере предоставлены пользователями сайта, и администрация не несет ответственности за их содержание. Просьба не заливать файлы, защищенные авторскими правами, а также файлы нелегального содержания!