Важное объявление!
У Нас Все раздачи мультитрекерные, при нуле пиров в релизах, можете смело вставать на закачку!
Статистика раздачи
Размер:     |    Зарегистрирован:     |    Скачан:     |   
Нет
 
     
 
 
Автор Сообщение

HUNTER

Стаж:
5 лет 1 месяц
Сообщений:
68426

Репутация: 101

[+] [-]
Вне форума [Профиль] [ЛС]

Огни притона--
Год выпуска: 2011
Страна: Россия
Студия: Мосфильм
Жанр: драма, мелодрама, музыка
Продолжительность: 01:51:44
Перевод: Не требуется [Лицензия]
Cубтитры: русские, английские--Режиссер: Александр Гордон
В ролях: Оксана Фандера, Алексей Левинский, Наталия Фиссон, Анжела Чобану, Анна Слю, Катерина Шпица, Богдан Ступка, Ада Роговцева, Евгений Цыганов, Кристиан Жереги
Описание: Действие фильма происходит в Одессе в 1958 году. Главная героиня — мама Люба — хозяйка маленького борделя. В ее подчинении — две «девочки», Зинка-Гитлер и Зигота. Они живут душа в душу. В маму Любу влюблен сын прокурора Аркаша, а она любит Адама, юродивого и поэта…--Доп. информация: Сохранены оригинальные чаптеры как на Blu-ray, за исходный диск большое спасибо - gigant33


Релиз: by xmad--Тип релиза: BDRip 720p
Формат: MKV
Видео кодек: MPEG-4 AVC Video
Аудио кодек: DTS
Видео: MPEG-4 AVC, 1280x536 (2,40:1), at 24.000 fps (True24p), ~ 8043 kbps avg, High Profile 4.1
Аудио: DTS, 48 kHz/16-bit, 3/2 (L,C,R,l,r) + LFE ch, ~1152 kbps avg
Формат субтитров: softsub (SRT) Russian, English

MediaInfo

Код:
Общее
Уникальный идентификатор         : 176294605598284723600008821557541222148 (0x84A11B22868794638E3A6306C7DC3704)
Полное имя                       : OGNI.PRITONA.2011.720p.BluRay.Rus.HDCLUB.mkv
Формат                           : Matroska
Версия формата                   : Version 2
Размер файла                     : 7,32 Гбайт
Продолжительность                : 1 ч. 51 м.
Общий поток                      : 9382 Кбит/сек
Название фильма                  : OGNI.PRITONA (2011) -  Release for HDCLUB
Дата кодирования                 : UTC 2012-01-25 04:03:05
Программа кодирования            : mkvmerge v4.9.1 ('Ich will') сборка от Jul 11 2011 23:53:15
Библиотека кодирования           : libebml v1.2.1 + libmatroska v1.1.1
Видео
Идентификатор                    : 1
Формат                           : AVC
Формат/Информация                : Advanced Video Codec
Профиль формата                  : High@L4.1
Параметр CABAC формата           : Да
Параметр ReFrames формата        : 8 кадров
Идентификатор кодека             : V_MPEG4/ISO/AVC
Продолжительность                : 1 ч. 51 м.
Битрейт                          : 8043 Кбит/сек
Ширина                           : 1280 пикселей
Высота                           : 536 пикселей
Соотношение сторон               : 2,40:1
Частота кадров                   : 24,000 кадра/сек
Цветовое пространство            : YUV
Субдискретизация насыщенности    : 4:2:0
Битовая глубина                  : 8 бит
Тип развёртки                    : Прогрессивная
Бит/(Пиксели*Кадры)              : 0.488
Размер потока                    : 6,28 Гбайт (86%)
Заголовок                        : Release for HDCLUB
Библиотека кодирования           : x264 core 116 r2074 2641b9e
Настройки программы              : cabac=1 / ref=8 / deblock=1:-3:-3 / analyse=0x3:0x133 / me=umh / subme=11 / psy=1 / psy_rd=1.00:0.00 / mixed_ref=1 / me_range=32 / chroma_me=1 / trellis=2 / 8x8dct=1 / cqm=0 / deadzone=21,11 / fast_pskip=1 / chroma_qp_offset=-2 / threads=3 / sliced_threads=0 / nr=0 / decimate=1 / interlaced=0 / bluray_compat=0 / constrained_intra=0 / bframes=12 / b_pyramid=2 / b_adapt=2 / b_bias=0 / direct=3 / weightb=1 / open_gop=0 / weightp=2 / keyint=240 / keyint_min=24 / scenecut=40 / intra_refresh=0 / rc_lookahead=60 / rc=crf / mbtree=1 / crf=15.0 / qcomp=0.60 / qpmin=0 / qpmax=69 / qpstep=4 / ip_ratio=1.40 / aq=1:1.00
Язык                             : Russian
Default                          : Да
Forced                           : Нет
Основные цвета                   : BT.709-5, BT.1361, IEC 61966-2-4, SMPTE RP177
Характеристики трансфера         : BT.709-5, BT.1361
Коэффициенты матрицы             : BT.709-5, BT.1361, IEC 61966-2-4 709, SMPTE RP177
Аудио
Идентификатор                    : 2
Формат                           : DTS
Формат/Информация                : Digital Theater Systems
Идентификатор кодека             : A_DTS
Продолжительность                : 1 ч. 51 м.
Вид битрейта                     : Постоянный
Битрейт                          : 1152 Кбит/сек
Каналы                           : 6 каналов
Расположение каналов             : Front: L C R, Side: L R, LFE
Частота                          : 48,0 КГц
Битовая глубина                  : 16 бит
Метод сжатия                     : С потерями
Размер потока                    : 921 Мбайт (12%)
Заголовок                        : (DTS 5.1,1152 kbit/s,48 kHz)
Язык                             : Russian
Default                          : Да
Forced                           : Нет
Текст #1
Идентификатор                    : 3
Формат                           : UTF-8
Идентификатор кодека             : S_TEXT/UTF8
Идентификатор кодека/Информация  : UTF-8 Plain Text
Заголовок                        : SRT
Язык                             : Russian
Default                          : Да
Forced                           : Нет
Текст #2
Идентификатор                    : 4
Формат                           : UTF-8
Идентификатор кодека             : S_TEXT/UTF8
Идентификатор кодека/Информация  : UTF-8 Plain Text
Заголовок                        : SRT
Язык                             : English
Default                          : Нет
Forced                           : Нет
Меню
00:00:00.000                     : :Chapter 01
00:07:05.458                     : :Chapter 02
00:12:00.375                     : :Chapter 03
00:17:06.500                     : :Chapter 04
00:23:33.916                     : :Chapter 05
00:31:06.666                     : :Chapter 06
00:35:02.666                     : :Chapter 07
00:39:22.291                     : :Chapter 08
00:44:24.458                     : :Chapter 09
00:50:00.083                     : :Chapter 10
00:56:22.125                     : :Chapter 11
01:02:39.833                     : :Chapter 12
01:08:08.583                     : :Chapter 13
01:14:33.166                     : :Chapter 14
01:22:37.625                     : :Chapter 15
01:28:53.458                     : :Chapter 16
01:34:36.000                     : :Chapter 17
01:42:55.000                     : :Chapter 18
01:51:43.500                     : :Chapter 19

x264 log

Код:
frame I:895   Avg QP:12.15  size:199086
frame P:32742 Avg QP:15.88  size: 85127
frame B:127258 Avg QP:19.45  size: 30873
consecutive B-frames:  1.9%  1.2%  3.8% 19.5% 18.7% 39.5%  7.2%  2.5%  2.3%  0.9%  0.9%  0.7%  0.9%

Скриншоты

Source vs Encode


_________________
Показать сообщения:    

Текущее время: Сегодня 23:51

Часовой пояс: GMT



Вы не можете начинать темы
Вы не можете отвечать на сообщения
Вы не можете редактировать свои сообщения
Вы не можете удалять свои сообщения
Вы не можете голосовать в опросах
Вы не можете прикреплять файлы к сообщениям
Вы не можете скачивать файлы