Важное объявление!
У Нас Все раздачи мультитрекерные, при нуле пиров в релизах, можете смело вставать на закачку!
 
Автор Сообщение

HUNTER

Стаж:
4 года 6 месяцев
Сообщений:
60970

Репутация: 101

[+] [-]
Вне форума [Профиль] [ЛС]

Огни большого города / City Lights-
Страна: США
Студия: Charles Chaplin Productions
Жанр: комедия, драма
Год выпуска: 1931
Продолжительность: 01:26:47-Перевод: субтитры
Cубтитры: русские (7ime 7raveller)
Оригинальная аудиодорожка: английский (музыкальное сопровождение Чарльза Чаплина)-Режиссер: Чарльз Чаплин / Charles Chaplin
В ролях: Чарли Чаплин (Charlie Chaplin), Вирджиния Черрилл (Virginia Cherrill), Флоренс Ли (Florence Lee), Гарри Майерс (Harry Myers), Аллан Гарсиа (Allan Garcia), Хэнк Манн (Hank Mann), Джек Александр (Jack Alexander) и др.-Описание: Маленький Бродяга встречает красивую слепую девушку, торгующую цветами на улице, которая по ошибке принимает его за богатого господина. Узнав о том, что операция может вернуть ей зрение, Бродяга пускается на поиски денег...-Сэмпл: http://www.sendspace.com/file/mq71cl-Тип релиза: BDRip 1080p (WiKi)
Контейнер: MKV
Видео: MPEG-4 AVC / 18500 kbps / 1288 x 1080 / 23.976 fps / 1.19:1
Аудио 1: English / AC3 1.0 / 48 kHz / 192 kbps (Original score composed by Charles Chaplin)
Аудио 2: English / FLAC 1.0 / 48 kHz / 530 kbps / 24 bit (Original score composed by Charles Chaplin)
Аудио 3: English / AC3 1.0 / 48 kHz / 192 kbps (Commentary by Charlie Chaplin biographer Jeffrey Vance)
Формат субтитров: softsub (SRT)
Навигация по главам: есть- -

MediaInfo

Код:
Общее
Уникальный идентификатор                 : 196590015432731067925016380691610683953 (0x93E5DC1881BFA61384B1EF6C0BD54A31)
Полное имя                               : F:\Criterion Collection\Огни большого города\City Lights.1931.Criterion Collection.BD-Rip.1080p-WiKi.mkv
Формат                                   : Matroska
Версия формата                           : Version 4 / Version 2
Размер файла                             : 11,8 Гбайт
Продолжительность                        : 1 ч. 26 м.
Режим общего битрейта                    : Переменный
Общий поток                              : 19,4 Мбит/сек
Название фильма                          : YiFan @ WiKi
Дата кодирования                         : UTC 2014-02-26 11:26:47
Программа кодирования                    : mkvmerge v6.6.0 ('The Edge Of The In Between') built on Dec  1 2013 17:55:00
Библиотека кодирования                   : libebml v1.3.0 + libmatroska v1.4.1
Видео
Идентификатор                            : 1
Формат                                   : AVC
Формат/Информация                        : Advanced Video Codec
Профиль формата                          : High@L4.1
Параметр CABAC формата                   : Да
Параметр ReFrames формата                : 5 кадров
Идентификатор кодека                     : V_MPEG4/ISO/AVC
Продолжительность                        : 1 ч. 26 м.
Номинальный битрейт                      : 18,5 Мбит/сек
Ширина                                   : 1288 пикселей
Высота                                   : 1080 пикселей
Соотношение сторон                       : 1,193
Режим частоты кадров                     : Постоянный
Частота кадров                           : 23,976 кадра/сек
Цветовое пространство                    : YUV
Субдискретизация насыщенности            : 4:2:0
Битовая глубина                          : 8 бит
Тип развёртки                            : Прогрессивная
Бит/(Пиксели*Кадры)                      : 0.555
Заголовок                                : City Lights
Библиотека кодирования                   : x264 core 129 r2245+704+36 8e61944 tMod+MixAQ [8-bit@4:2:0 X86]
Настройки программы                      : cabac=1 / ref=5 / deblock=1:-3:-3 / analyse=0x3:0x133 / me=umh / subme=11 / psy=1 / fade_compensate=0.00 / psy_rd=1.00:0.10 / mixed_ref=1 / me_range=64 / chroma_me=0 / trellis=2 / 8x8dct=1 / cqm=0 / deadzone=21,11 / fast_pskip=0 / chroma_qp_offset=-3 / threads=6 / lookahead_threads=1 / sliced_threads=0 / nr=0 / decimate=0 / interlaced=0 / bluray_compat=0 / constrained_intra=0 / fgo=0 / bframes=10 / b_pyramid=2 / b_adapt=2 / b_bias=0 / direct=3 / weightb=1 / open_gop=0 / weightp=2 / keyint=600 / keyint_min=1 / scenecut=40 / intra_refresh=0 / rc_lookahead=80 / rc=2pass / mbtree=1 / bitrate=18500 / ratetol=1.0 / qcomp=0.70 / qpmin=0 / qpmax=69 / qpstep=4 / cplxblur=20.0 / qblur=0.5 / vbv_maxrate=38000 / vbv_bufsize=30000 / nal_hrd=none / ip_ratio=1.30 / aq=1 / aq-strength=0.70 / aq-sensitivity=10.00 / aq-ifactor=1.00 / aq-pfactor=1.00 / aq-bfactor=1.00 / aq2=0
Язык                                     : English
Default                                  : Да
Forced                                   : Нет
Аудио #1
Идентификатор                            : 2
Формат                                   : AC-3
Формат/Информация                        : Audio Coding 3
Расширение режима                        : CM (complete main)
Параметр Endianness формата              : Big
Идентификатор кодека                     : A_AC3
Продолжительность                        : 1 ч. 26 м.
Вид битрейта                             : Постоянный
Битрейт                                  : 192 Кбит/сек
Каналы                                   : 1 канал
Расположение каналов                     : Front: C
Частота                                  : 48,0 КГц
Битовая глубина                          : 16 бит
Метод сжатия                             : С потерями
Размер потока                            : 119 Мбайт (1%)
Заголовок                                : Original score composed by Charles Chaplin [AC3 1.0 @ 192 kbps]
Язык                                     : English
Default                                  : Да
Forced                                   : Нет
Аудио #2
Идентификатор                            : 3
Формат                                   : FLAC
Формат/Информация                        : Free Lossless Audio Codec
Идентификатор кодека                     : A_FLAC
Продолжительность                        : 1 ч. 26 м.
Вид битрейта                             : Переменный
Каналы                                   : 1 канал
Частота                                  : 48,0 КГц
Битовая глубина                          : 24 бит
Заголовок                                : Original score composed by Charles Chaplin [FLAC 1.0 @ 530 kbps]
Библиотека кодирования                   : libFLAC 1.3.0 (UTC 2013-05-26)
Язык                                     : English
Default                                  : Нет
Forced                                   : Нет
Аудио #3
Идентификатор                            : 4
Формат                                   : AC-3
Формат/Информация                        : Audio Coding 3
Расширение режима                        : CM (complete main)
Параметр Endianness формата              : Big
Идентификатор кодека                     : A_AC3
Продолжительность                        : 1 ч. 26 м.
Вид битрейта                             : Постоянный
Битрейт                                  : 192 Кбит/сек
Каналы                                   : 1 канал
Расположение каналов                     : Front: C
Частота                                  : 48,0 КГц
Битовая глубина                          : 16 бит
Метод сжатия                             : С потерями
Размер потока                            : 119 Мбайт (1%)
Заголовок                                : Commentary by Charlie Chaplin biographer Jeffrey Vance [AC3 1.0 @ 192 kbps]
Язык                                     : English
Default                                  : Нет
Forced                                   : Нет
Текст
Идентификатор                            : 5
Формат                                   : UTF-8
Идентификатор кодека                     : S_TEXT/UTF8
Идентификатор кодека/Информация          : UTF-8 Plain Text
Заголовок                                : 7ime 7raveller
Язык                                     : Russian
Default                                  : Да
Forced                                   : Нет
Меню
00:00:00.000                             : en:Peace and prosperity
00:05:00.508                             : en:Afternoon
00:07:09.720                             : en:A flower
00:11:32.233                             : en:Night
00:16:09.176                             : en:I'll live!
00:20:50.958                             : en:The night club
00:27:08.543                             : en:Early morning
00:34:13.217                             : en:The sober dawn
00:37:46.097                             : en:The party
00:42:08.317                             : en:The morning after
00:46:08.849                             : en:Work
00:50:58.680                             : en:To play the part of a gentleman
00:56:28.802                             : en:That night
01:03:14.415                             : en:The ring
01:09:45.014                             : en:Police!
01:16:56.528                             : en:For awhile
01:20:24.236                             : en:Autumn

Скриншоты


Сравнение видеоряда

Source (Criterion) -> WiKi (Criterion) -> SASHA FIL (Park Circus)


Доп. информация

Редакция русских субтитров от 7ime 7raveller
-

_________________
Показать сообщения:    

Текущее время: Сегодня 10:15

Часовой пояс: GMT



Вы не можете начинать темы
Вы не можете отвечать на сообщения
Вы не можете редактировать свои сообщения
Вы не можете удалять свои сообщения
Вы не можете голосовать в опросах
Вы не можете прикреплять файлы к сообщениям
Вы не можете скачивать файлы
Наши партнеры: интернет магазин Ивановского трикотажа textilla.ru