Ивановский Торрент трекер
Яндекс.Погода
 

[Цитировать]
HUNTER

Огненное лето
Год выпуска: 1968
Страна: СССР
Жанр: документальный
Продолжительность: 00:48:55
Перевод: Не требуется
Режиссер: А. Наймушин
Описание: Фильм, посвященный 25-летию Курской битвы, воскрешает события 1943 года. В значительной части фильм построен на воспоминаниях непосредственных участников событий. В картину включены кадры кинохроники Великой отечественной войны и кадры, снятые в дни празднования 25-летия победы под Курском.
качество: TVRip
формат: AVI
Видео: DivX 5 512x384 25fps 600 Kbps
Аудио: MP3 44100Hz stereo 96kbps

MediaInfo

General
Complete name : C:\Documents and Settings\User\Мои документы\Огненное лето.avi
Format : AVI
Format/Info : Audio Video Interleave
File size : 221 MiB
Duration : 48mn 55s
Overall bit rate : 693 Kbps
Writing application : Nandub v1.0rc2
Writing library : Nandub build 1853/release
Video
ID : 0
Format : MPEG-4 Visual
Format profile : Advanced Simple@L1
Format settings, BVOP : 2
Format settings, QPel : No
Format settings, GMC : No warppoints
Format settings, Matrix : Default (H.263)
Codec ID : DX50
Codec ID/Hint : DivX 5
Duration : 48mn 55s
Bit rate : 600 Kbps
Width : 512 pixels
Height : 384 pixels
Display aspect ratio : 4:3
Frame rate : 25.000 fps
Color space : YUV
Chroma subsampling : 4:2:0
Bit depth : 8 bits
Scan type : Progressive
Compression mode : Lossy
Bits/(Pixel*Frame) : 0.122
Stream size : 210 MiB (95%)
Writing library : Lavc52.37.0
Audio
ID : 1
Format : MPEG Audio
Format version : Version 1
Format profile : Layer 3
Mode : Joint stereo
Mode extension : MS Stereo
Codec ID : 55
Codec ID/Hint : MP3
Duration : 13mn 18s
Bit rate mode : Constant
Bit rate : 96.0 Kbps
Channel count : 2 channels
Sampling rate : 44.1 KHz
Compression mode : Lossy
Stream size : 9.14 MiB (4%)
Alignment : Aligned on interleaves
Interleave, duration : 96 ms (2.40 video frames)
Interleave, preload duration : 130 ms

Скриншоты

Показать сообщения:    

Текущее время: 19-Сен 21:39

Часовой пояс: UTC - 1


Вы не можете начинать темы
Вы не можете отвечать на сообщения
Вы не можете редактировать свои сообщения
Вы не можете удалять свои сообщения
Вы не можете голосовать в опросах
Вы не можете прикреплять файлы к сообщениям
Вы не можете скачивать файлы

!ВНИМАНИЕ!
Сайт не предоставляет электронные версии произведений, а занимается лишь коллекционированием и каталогизацией ссылок, присылаемых и публикуемых на форуме нашими читателями. Если вы являетесь правообладателем какого-либо представленного материала и не желаете, чтобы ссылка на него находилась в нашем каталоге, свяжитесь с нами, и мы незамедлительно удалим ее. Файлы для обмена на трекере предоставлены пользователями сайта, и администрация не несет ответственности за их содержание. Просьба не заливать файлы, защищенные авторскими правами, а также файлы нелегального содержания!