Ивановский Торрент трекер
Яндекс.Погода
 

[Цитировать]
димитри37

Обычный человекA Common Man- Страна: США, Шри-Ланка
Жанр: боевик, триллер
Год выпуска: 2012
Продолжительность: 01:25:46-Перевод: Одноголосый закадровый [den904], перевод [Janetta], работа со звуком [spee2k]
Субтитры: нет
Режиссер: Чандрам Рутнам / Chandran Rutnam
В ролях: Бен Кингсли, Бен Кросс, Нумая Сиривардена, Патрик Рутнам, Фредерик-Джеймс Лобато, Mohamed Adamaly, Джером Де Силва, Ashan Dias, Wilson Gunarathne, Сандо Харрис, Kian O'Grady, Wilmon Sirimanne-Описание: Террорист устанавливает несколько взрывных устройств в разных районах города Коломбо, Шри-Ланка и угрожает взорвать их, если заключенные не будут выпущены на свободу.-


MPAA: PG-13 - Детям до 13 лет просмотр не желателен-Сценарий: Нирадж Пандеу / Neeraj Pandey, Чандрам Рутнам / Chandran Rutnam
Продюсер: Б.С. Рада Кришнан / B.S. Radha Krishnan, Manohan Nanayakkara, Чандрам Рутнам / Chandran Rutnam, Пол Мэйсон / Paul Mason, Джонатан Шейнберг / Jonathan Sheinberg
Оператор: Chandana Jayasinghe
Композитор: Олстон Кох / Alston Koch-Качество: HDRip
Контейнер: AVI
Видео: XviD, 720x400 (16:9), 1824 kbps, 23,976 fps, 0,264 bpp
Аудио: AC3 / 5.1 / 48 kHz / 448 kbps / 16 bit-

Media Info

General
Complete name : G:\A.Common.Man.2012.L1_HDRip.1400.avi
Format : AVI
Format/Info : Audio Video Interleave
File size : 1.37 GiB
Duration : 1h 25mn
Overall bit rate : 2 282 Kbps
Writing application : VirtualDubMod 1.5.10.2 (build 2540/release)
Writing library : VirtualDubMod build 2540/release
Video
ID : 0
Format : MPEG-4 Visual
Format profile : Advanced Simple@L5
Format settings, BVOP : 2
Format settings, QPel : No
Format settings, GMC : No warppoints
Format settings, Matrix : Default (H.263)
Codec ID : XVID
Codec ID/Hint : XviD
Duration : 1h 25mn
Bit rate : 1 825 Kbps
Width : 720 pixels
Height : 400 pixels
Display aspect ratio : 16:9
Frame rate : 23.976 fps
Color space : YUV
Chroma subsampling : 4:2:0
Bit depth : 8 bits
Scan type : Progressive
Compression mode : Lossy
Bits/(Pixel*Frame) : 0.264
Stream size : 1.09 GiB (80%)
Writing library : XviD 1.2.1 (UTC 2008-12-04)
Audio
ID : 1
Format : AC-3
Format/Info : Audio Coding 3
Mode extension : CM (complete main)
Codec ID : 2000
Duration : 1h 25mn
Bit rate mode : Constant
Bit rate : 448 Kbps
Channel(s) : 6 channels
Channel positions : Front: L C R, Side: L R, LFE
Sampling rate : 48.0 KHz
Bit depth : 16 bits
Compression mode : Lossy
Stream size : 275 MiB (20%)
Alignment : Split accross interleaves
Interleave, duration : 42 ms (1.00 video frame)
Interleave, preload duration : 500 ms

Скриншот с названием фильма

Скриншоты



Показать сообщения:    

Текущее время: 14-Дек 16:46

Часовой пояс: UTC ± 0


Вы не можете начинать темы
Вы не можете отвечать на сообщения
Вы не можете редактировать свои сообщения
Вы не можете удалять свои сообщения
Вы не можете голосовать в опросах
Вы не можете прикреплять файлы к сообщениям
Вы не можете скачивать файлы

!ВНИМАНИЕ!
Сайт не предоставляет электронные версии произведений, а занимается лишь коллекционированием и каталогизацией ссылок, присылаемых и публикуемых на форуме нашими читателями. Если вы являетесь правообладателем какого-либо представленного материала и не желаете, чтобы ссылка на него находилась в нашем каталоге, свяжитесь с нами, и мы незамедлительно удалим ее. Файлы для обмена на трекере предоставлены пользователями сайта, и администрация не несет ответственности за их содержание. Просьба не заливать файлы, защищенные авторскими правами, а также файлы нелегального содержания!