Важное объявление!
У Нас Все раздачи мультитрекерные, при нуле пиров в релизах, можете смело вставать на закачку!
Статистика раздачи
Размер:     |    Зарегистрирован:     |    Скачан:     |   
Нет
 
     
 
 
Автор Сообщение

димитри37

Стаж:
4 года 4 месяца
Сообщений:
1236

Репутация: 127

[+] [-]
Вне форума [Профиль] [ЛС]

Обыкновенное чудо (2 серии)
Жанр: сказка, мелодрама, музыкальный
Год выпуска: 1978
Продолжительность: 01:08:45 + 01:08:53
Режиссер: Марк Захаров
В ролях: Олег Янковский, Ирина Купченко, Евгений Леонов, Евгения Симонова, Александр Абдулов, Екатерина Васильева (вокал - Лариса Долина), Юрий Соломин (вокал - Леонид Серебренников), Андрей Миронов, Ерванд Арзуманян, Всеволод Ларионов, Нина Пушкова, Валентина Воилкова, Владимир Долинский, Андрей Леонов, Ольга Вяликова, Геннадий Егоров, Татьяна Игнатова, Вадим Урюпин, Владимир Яновскис, Михаил Розанов, Олег Фёдоров
Описание: Жил-был волшебник, который, на беду свою, был бессмертен. На беду - потому что имел мужество полюбить смертную женщину и жениться на ней: "Мне суждено пережить тебя и затосковать навеки..." И вот, чтобы развлечь жену, он придумывает для неё сказку - волшебник превращает в прекрасного юношу обыкновенного лесного медведя и ставит при этом такое условие: если юноша хочет снова стать медведем и вернуться в родной лес, его должна поцеловать принцесса. Казалось бы, всё просто, но Принцесса и Медведь полюбили друг друга...
"Слава храбрецам, которые осмеливаются любить, зная, что всему этому придет конец. Слава безумцам, которые живут так, как будто они бессмертны. Любите, любите друг друга, да и всех нас заодно, не остывайте, не отступайте - и вы будете так счастливы, что это просто чудо!.." (Евгений Шварц)
Доп. информация: По одноименной пьесе Евгения Шварца.
Сценарий: Евгений Шварц, Марк Захаров
Оператор: Николай Немоляев
Художник: Людмила Кусакова
Композитор: Геннадий Гладков
Стихи: Юлий Ким
Вокал: Андрей Миронов, Леонид Серебренников, Лариса Долина
Ограничения на просмотр: для любой зрительской аудитории

Интересные факты

  • Это вторая экранизация пьесы Евгения Шварца. Первая была снята в 1964 году Эрастом Гариным.
  • В доме Волшебника висит изображение дракона.
    Образцом послужила гравюра из трактата начала XVIII века по оптике, иллюстрирующая, что такое угол зрения, - Johannes Zahn, "The radiating eye" ("Oculus Artificialis Teledioptricus Sive Telescopium") (1702).
Качество видео: DVDRip
Формат видео: AVI
Видео: 720x544 (1.32:1), 25 fps, XviD 64, 2400 kbps avg, 0.25 bit/pixel (для обеих серий)
Аудио: 48 kHz, AC3 Dolby Digital, 3/2 (L,C,R,l,r) + LFE ch, 448 kbps (для обеих серий)

MediaInfo

Полное имя : \Obyknovennoe chudo\Part 1.avi
Формат : AVI
Формат/Информация : Audio Video Interleave
Размер файла : 1,37 Гбайт
Продолжительность : 1 ч. 8 м.
Общий поток : 2858 Кбит/сек
Программа кодирования : VirtualDubMod 1.5.10.3 (build 2550/release)
Библиотека кодирования : VirtualDubMod build 2550/release
Видео
Идентификатор : 0
Формат : MPEG-4 Visual
Профиль формата : Advanced Simple@L5
Параметр BVOP формата : 2
Параметр QPel формата : Нет
Параметр GMC формата : Без точки перехода
Параметр матрицы формата : Выборочная
Идентификатор кодека : XVID
Идентификатор кодека/Подсказка : XviD
Продолжительность : 1 ч. 8 м.
Битрейт : 2400 Кбит/сек
Ширина : 720 пикселей
Высота : 544 пикселя
Соотношение сторон : 4:3
Частота кадров : 25,000 кадров/сек
Цветовое пространство : YUV
Субдискретизация насыщенности : 4:2:0
Битовая глубина : 8 бит
Тип развёртки : Прогрессивная
Метод сжатия : С потерями
Бит/(Пиксели*Кадры) : 0.245
Размер потока : 1,15 Гбайт (84%)
Библиотека кодирования : XviD 64
Аудио
Идентификатор : 1
Формат : AC-3
Формат/Информация : Audio Coding 3
Расширение режима : CM (complete main)
Параметр Endianness формата : Big
Идентификатор кодека : 2000
Продолжительность : 1 ч. 8 м.
Вид битрейта : Постоянный
Битрейт : 448 Кбит/сек
Каналы : 6 каналов
Расположение каналов : Front: L C R, Side: L R, LFE
Частота : 48,0 КГц
Битовая глубина : 16 бит
Метод сжатия : С потерями
Размер потока : 220 Мбайт (16%)
Выравнивание : Разделение по промежуткам
Продолжительность промежутка : 40 мс. (1,00 видеокадр)
Время предзагрузки промежутка : 500 мс.
Полное имя : \Obyknovennoe chudo\Part 2.avi
Формат : AVI
Формат/Информация : Audio Video Interleave
Размер файла : 1,38 Гбайт
Продолжительность : 1 ч. 8 м.
Общий поток : 2858 Кбит/сек
Программа кодирования : VirtualDubMod 1.5.10.3 (build 2550/release)
Библиотека кодирования : VirtualDubMod build 2550/release
Видео
Идентификатор : 0
Формат : MPEG-4 Visual
Профиль формата : Advanced Simple@L5
Параметр BVOP формата : 2
Параметр QPel формата : Нет
Параметр GMC формата : Без точки перехода
Параметр матрицы формата : Выборочная
Идентификатор кодека : XVID
Идентификатор кодека/Подсказка : XviD
Продолжительность : 1 ч. 8 м.
Битрейт : 2400 Кбит/сек
Ширина : 720 пикселей
Высота : 544 пикселя
Соотношение сторон : 4:3
Частота кадров : 25,000 кадров/сек
Цветовое пространство : YUV
Субдискретизация насыщенности : 4:2:0
Битовая глубина : 8 бит
Тип развёртки : Прогрессивная
Метод сжатия : С потерями
Бит/(Пиксели*Кадры) : 0.245
Размер потока : 1,15 Гбайт (84%)
Библиотека кодирования : XviD 64
Аудио
Идентификатор : 1
Формат : AC-3
Формат/Информация : Audio Coding 3
Расширение режима : CM (complete main)
Параметр Endianness формата : Big
Идентификатор кодека : 2000
Продолжительность : 1 ч. 8 м.
Вид битрейта : Постоянный
Битрейт : 448 Кбит/сек
Каналы : 6 каналов
Расположение каналов : Front: L C R, Side: L R, LFE
Частота : 48,0 КГц
Битовая глубина : 16 бит
Метод сжатия : С потерями
Размер потока : 221 Мбайт (16%)
Выравнивание : Разделение по промежуткам
Продолжительность промежутка : 40 мс. (1,00 видеокадр)
Время предзагрузки промежутка : 500 мс.

Скриншоты названия

Скриншоты

Показать сообщения:    

Текущее время: Сегодня 16:48

Часовой пояс: GMT



Вы не можете начинать темы
Вы не можете отвечать на сообщения
Вы не можете редактировать свои сообщения
Вы не можете удалять свои сообщения
Вы не можете голосовать в опросах
Вы не можете прикреплять файлы к сообщениям
Вы не можете скачивать файлы