Важное объявление!
У Нас Все раздачи мультитрекерные, при нуле пиров в релизах, можете смело вставать на закачку!
 
Автор Сообщение

HUNTER

Стаж:
4 года 10 месяцев
Сообщений:
65485

Репутация: 101

[+] [-]
Вне форума [Профиль] [ЛС]

И объяли мою душу их светлые печали
Страна: Узбекистан
Жанр: Драма
Год выпуска: 2007
Продолжительность: 2:05:52
Перевод: Профессиональный (дублированный) Узбекфильм
Cубтитры: нет
Режиссер: С. Назармухамедов
В ролях: У. Музаффаров, Е. Камилов, И. Рахимджанова, А. Назармухамедов, Н. Елтаева, А. Атабаева, В. Шамсиев
Описание: События в фильме происходят в течение одного года. В конце октября молодой врач-психиатр Музаффар приезжает работать в пансионат для инвалидов, расположенный у быстрой горной реки. В этом пансионате работают щедрые душой люди во главе с директором-врачом Михаилом Соломоновичем.
Все его зовут просто дядя Миша. В том числе и больные, которые остались здесь, их всего четырнадцать. В основном это душевнобольные. Но, несмотря на болезнь, каждый из них обладает каким-то даром, талантом. Среди них есть и старый трагик, и оперный певец, и девочка-художник, и девочка-бабочка, и юноша-музыкант, и поэт.
Доп. информация: Данный фильм был показан на русском языке только один раз.
Сэмпл: http://multi-up.com/976986
Качество видео: DVD Video
Формат видео: DVD5
Видео: MPEG Video, 720x576, 25.000 fps, VBR 3300-8000 kbps
Аудио: PCM, 48.0 KHz, 1 536 Kbps, Stereo
MediaInfo
General
Complete name : E:\Obyali moyu dushu svetlie pechali\VIDEO_TS\VTS_01_1.VOB
Format : MPEG-PS
File size : 1 024 MiB
Duration : 28mn 47s
Overall bit rate mode : Variable
Overall bit rate : 4 972 Kbps
Video
ID : 224 (0xE0)
Format : MPEG Video
Format version : Version 2
Format profile : Main@Main
Format settings, BVOP : Yes
Format settings, Matrix : Custom
Format settings, GOP : Variable
Duration : 28mn 47s
Bit rate mode : Variable
Bit rate : 3 337 Kbps
Maximum bit rate : 8 000 Kbps
Width : 720 pixels
Height : 576 pixels
Display aspect ratio : 4:3
Frame rate : 25.000 fps
Standard : PAL
Color space : YUV
Chroma subsampling : 4:2:0
Bit depth : 8 bits
Scan type : Interlaced
Scan order : Top Field First
Compression mode : Lossy
Bits/(Pixel*Frame) : 0.322
Time code of first frame : 00:00:00:00
Time code source : Group of pictures header
Stream size : 687 MiB (67%)
Color primaries : BT.601 NTSC
Transfer characteristics : BT.601
Matrix coefficients : BT.601
Audio
ID : 189 (0xBD)-160 (0xA0)
Format : PCM
Format settings, Endianness : Big
Format settings, Sign : Signed
Muxing mode : DVD-Video
Duration : 28mn 47s
Bit rate mode : Constant
Bit rate : 1 536 Kbps
Channel(s) : 2 channels
Sampling rate : 48.0 KHz
Bit depth : 16 bits
Stream size : 316 MiB (31%)
Menu
Отчёт DVDInfo
Title: Obyali moyu dushu svetlie pechali
Size: 4.35 Gb ( 4 566 180,00 KBytes ) - DVD-5
Enabled regions: 1, 2, 3, 4, 5, 6, 7, 8
VTS_01 :
Play Length: 02:04:52
Video: PAL 4:3 (720x576) VBR
Audio:
English, LPCM, Delay = 0 mSec
* Menus Information *
VIDEO_TS Menu
Video:
PAL 4:3 (720x576) VBR
Audio:
Not specified (LinearPCM, 2 ch)
English Language Unit :
Title Menu
VTS_01 Menu
Video:
PAL 4:3 (720x576) VBR
English Language Unit :
Root Menu
Скриншот c названием фильмаСкриншоты

_________________
Показать сообщения:    

Текущее время: Сегодня 22:45

Часовой пояс: GMT



Вы не можете начинать темы
Вы не можете отвечать на сообщения
Вы не можете редактировать свои сообщения
Вы не можете удалять свои сообщения
Вы не можете голосовать в опросах
Вы не можете прикреплять файлы к сообщениям
Вы не можете скачивать файлы