Ивановский Торрент трекер
Яндекс.Погода
 

[Цитировать]
HUNTER

Обучение Русскому Бильярду-
Год выпуска: 2004
Страна: Россия
Сайт производителя: Отсутствует
Тематика: Спорт
Тип материала: Обучающее видео-Продолжительность: 00:43:45
Автор: В. Симонич-Язык: Русский - Профессиональный (одноголосый)
Субтитры: Отсутствуют-Описание: 2 часть обучения, в основном пока расказы о бильярде.-Качество: TeleSynch
Формат: AVI
Видео кодек: XviD
Аудио кодек: MPEG Audio
Видео: 512x384 (1.33:1) 25 fps 1003 kbps avg 0.20 bit/pixel
Аудио: 44.100 kHz MPEG Layer 3 2 ch 128.00 kbps avg-

MediaInfo

General
Complete name : E:\Обучение\Simonych2.avi
Format : AVI
Format/Info : Audio Video Interleave
File size : 358 MiB
Duration : 43mn 45s
Overall bit rate : 1 144 Kbps
Writing application : MEncoder dev-CVS-051014-22:10-3.4.4
Writing library : MPlayer
Video
ID : 0
Format : MPEG-4 Visual
Format profile : Simple@L1
Format settings, BVOP : No
Format settings, QPel : No
Format settings, GMC : No warppoints
Format settings, Matrix : Default (H.263)
Codec ID : XVID
Codec ID/Hint : XviD
Duration : 43mn 45s
Bit rate : 1 004 Kbps
Width : 512 pixels
Height : 384 pixels
Display aspect ratio : 4:3
Frame rate : 25.000 fps
Color space : YUV
Chroma subsampling : 4:2:0
Bit depth : 8 bits
Scan type : Progressive
Compression mode : Lossy
Bits/(Pixel*Frame) : 0.204
Stream size : 314 MiB (88%)
Writing library : Lavc50.0.0
Audio
ID : 1
Format : MPEG Audio
Format version : Version 1
Format profile : Layer 3
Mode : Dual mono
Codec ID : 55
Codec ID/Hint : MP3
Duration : 43mn 45s
Bit rate mode : Constant
Bit rate : 128 Kbps
Channel(s) : 2 channels
Sampling rate : 44.1 KHz
Compression mode : Lossy
Stream size : 40.1 MiB (11%)
Alignment : Aligned on interleaves
Interleave, duration : 26 ms (0.65 video frame)
Interleave, preload duration : 809 ms
- -
Показать сообщения:    

Текущее время: 21-Сен 02:28

Часовой пояс: UTC - 1


Вы не можете начинать темы
Вы не можете отвечать на сообщения
Вы не можете редактировать свои сообщения
Вы не можете удалять свои сообщения
Вы не можете голосовать в опросах
Вы не можете прикреплять файлы к сообщениям
Вы не можете скачивать файлы

!ВНИМАНИЕ!
Сайт не предоставляет электронные версии произведений, а занимается лишь коллекционированием и каталогизацией ссылок, присылаемых и публикуемых на форуме нашими читателями. Если вы являетесь правообладателем какого-либо представленного материала и не желаете, чтобы ссылка на него находилась в нашем каталоге, свяжитесь с нами, и мы незамедлительно удалим ее. Файлы для обмена на трекере предоставлены пользователями сайта, и администрация не несет ответственности за их содержание. Просьба не заливать файлы, защищенные авторскими правами, а также файлы нелегального содержания!