Обучение Русскому Бильярду (В. Симонич)(1 часть)[2004, Спорт, TeleSynch] :: Ивановский Торрент трекер
Важное объявление!
У Нас Все раздачи мультитрекерные, при нуле пиров в релизах, можете смело вставать на закачку!
 
Автор Сообщение

HUNTER

Стаж:
4 года 11 месяцев
Сообщений:
66045

Репутация: 101

[+] [-]
Вне форума [Профиль] [ЛС]

Обучение Русскому Бильярду-

Год выпуска: 2004
Страна: Россия
Сайт производителя: Отсутствует
Тематика: Спорт
Тип материала: Обучающее видео-Продолжительность: 00:43:46
Автор: В. Симонич-Язык: Русский - Профессиональный (одноголосый)
Субтитры: Отсутствуют-Описание: 1 часть обучения, в основном пока расказы о бильярде, а также речь пойдет о инвентаре: какой лучше, какой хуже.-Качество: TeleSynch
Формат: AVI
Видео кодек: XviD
Аудио кодек: MPEG Audio
Видео: 512x384 (1.33:1)25 fps 1199 kbps avg 0.24 bit/pixel
Аудио: 44.100 kHz MPEG Layer 3 2 ch 128.00 kbps avg-

MediaInfo

General
Complete name : E:\Обучение\Simonych1.avi
Format : AVI
Format/Info : Audio Video Interleave
File size : 420 MiB
Duration : 43mn 46s
Overall bit rate : 1 340 Kbps
Writing application : MEncoder dev-CVS-051014-22:10-3.4.4
Writing library : MPlayer
Video
ID : 0
Format : MPEG-4 Visual
Format profile : Simple@L1
Format settings, BVOP : No
Format settings, QPel : No
Format settings, GMC : No warppoints
Format settings, Matrix : Default (H.263)
Codec ID : XVID
Codec ID/Hint : XviD
Duration : 43mn 46s
Bit rate : 1 200 Kbps
Width : 512 pixels
Height : 384 pixels
Display aspect ratio : 4:3
Frame rate : 25.000 fps
Color space : YUV
Chroma subsampling : 4:2:0
Bit depth : 8 bits
Scan type : Progressive
Compression mode : Lossy
Bits/(Pixel*Frame) : 0.244
Stream size : 376 MiB (90%)
Writing library : Lavc50.0.0
Audio
ID : 1
Format : MPEG Audio
Format version : Version 1
Format profile : Layer 3
Mode : Dual mono
Codec ID : 55
Codec ID/Hint : MP3
Duration : 43mn 46s
Bit rate mode : Constant
Bit rate : 128 Kbps
Channel(s) : 2 channels
Sampling rate : 44.1 KHz
Compression mode : Lossy
Stream size : 40.1 MiB (10%)
Alignment : Aligned on interleaves
Interleave, duration : 26 ms (0.65 video frame)
Interleave, preload duration : 809 ms
- -

_________________
Показать сообщения:    

Текущее время: Сегодня 14:06

Часовой пояс: GMT



Вы не можете начинать темы
Вы не можете отвечать на сообщения
Вы не можете редактировать свои сообщения
Вы не можете удалять свои сообщения
Вы не можете голосовать в опросах
Вы не можете прикреплять файлы к сообщениям
Вы не можете скачивать файлы