Важное объявление!
У Нас Все раздачи мультитрекерные, при нуле пиров в релизах, можете смело вставать на закачку!
Статистика раздачи
Размер:     |    Зарегистрирован:     |    Скачан:     |   
Нет
 
     
 
 
Автор Сообщение

HUNTER

Стаж:
5 лет
Сообщений:
67935

Репутация: 101

[+] [-]
Вне форума [Профиль] [ЛС]

Обратный отсчёт. Моонзунд. Подвиг белоруса
-Год выпуска: 2013
Страна: Беларусь
Жанр: Документальный
Продолжительность: 00:26:38
Перевод: Не требуется
Описание: Август 1914 года. Начало Первой мировой войны. В вооружённый конфликт втянуто 38 стран и почти 400 млн человек. Всеобщая мобилизация. Белорусов направляют в сухопутные войска на юго-запад и в военно-морской флот на Балтику.
В сентябре 1917 года Кайзер Вильгельм Второй решает воспользоваться нестабильной политической обстановкой в России после февральской революции. Немцы разрабатывают секретную операцию «Альбион»: захват Петрограда с моря.
29 сентября на Балтийском море началось самое масштабное морское сражение Первой мировой войны. Немецкая эскадра попыталась прорвать русскую оборону в районе Моонзундского архипелага. Ожесточённые бои шли 6 дней.
О беспримерном мужестве российских моряков и подвиге минного старшины с «Грома» миллионы советских людей узнали только в 1973 году, когда вышел роман Валентина Пикуля «Моонзунд». Прототипом одного из главных героев книги стал белорус -- Фёдор Самончук.
В ходе боев, оставшись один на тонущем эсминце «Гром», старшина выпустил торпеду в неприятельский миноносец, затем зажег факел и бросил его в пороховой погреб. Эсминец взорвался, не доставшись врагу. Но с ним пошёл ко дну и подбитый немецкий корабль. Самого Фёдора Самончука считали погибшим 37 лет. Но он выжил...- СэмплКачество: SATRip
Формат: AVI
Видео кодек: XviD
Аудио кодек: MP3
Видео: 720x400, 16:9, ~2066 kbps, 25 fps
Аудио: MPEG Layer 3, 2 ch, 128 kbps, 48 kHz

MediaInfo

General
Complete name : E:\Обратный отсчёт. Моонзунд. Подвиг белоруса.avi
Format : AVI
Format/Info : Audio Video Interleave
File size : 394 MiB
Duration : 26mn 38s
Overall bit rate : 2 066 Kbps
Writing application : MEncoder SVN-r30881(20100311-gcc4.3.3)
Writing library : MPlayer
Video
ID : 0
Format : MPEG-4 Visual
Format profile : AdvancedSimple@L5
Format settings, BVOP : Yes
Format settings, QPel : No
Format settings, GMC : No warppoints
Format settings, Matrix : Default (H.263)
Codec ID : XVID
Codec ID/Hint : XviD
Duration : 26mn 38s
Bit rate : 1 925 Kbps
Width : 720 pixels
Height : 400 pixels
Display aspect ratio : 16:9
Frame rate : 25.000 fps
Resolution : 24 bits
Colorimetry : 4:2:0
Scan type : Progressive
Bits/(Pixel*Frame) : 0.267
Stream size : 367 MiB (93%)
Writing library : XviD 1.2.1 (UTC 2008-12-04)
Audio
ID : 1
Format : MPEG Audio
Format version : Version 1
Format profile : Layer 3
Codec ID : 55
Codec ID/Hint : MP3
Duration : 26mn 38s
Bit rate mode : Constant
Bit rate : 128 Kbps
Channel(s) : 2 channels
Sampling rate : 48.0 KHz
Resolution : 16 bits
Video delay : 40ms
Stream size : 24.4 MiB (6%)
Alignment : Aligned on interleaves
Interleave, duration : 24 ms (0.60 video frame)
Interleave, preload duration : 504 ms
Writing library : LAME3.98

Скриншоты


_________________
Показать сообщения:    

Текущее время: Сегодня 22:54

Часовой пояс: GMT



Вы не можете начинать темы
Вы не можете отвечать на сообщения
Вы не можете редактировать свои сообщения
Вы не можете удалять свои сообщения
Вы не можете голосовать в опросах
Вы не можете прикреплять файлы к сообщениям
Вы не можете скачивать файлы