Важное объявление!
У Нас Все раздачи мультитрекерные, при нуле пиров в релизах, можете смело вставать на закачку!
 
Автор Сообщение

HUNTER

Стаж:
4 года 7 месяцев
Сообщений:
61531

Репутация: 101

[+] [-]
Вне форума [Профиль] [ЛС]

Обратный билет

Год выпуска: 2012
Страна: Россия
Жанр: мелодрама
Продолжительность: 01:29:32
Cубтитры: нет
Перевод: Оригинал
Режиссер: Александр Кананович
В ролях: Елена Подкаминская (Маша), Андрей Биланов (Кашин), Константин Константинов (Мальцев), Ольга Гагарина (Светлана), Нелли Неведина (Лидия Васильевна), Катя Подлесная (Саша), Дианисий Толоконников (Вова), Ольга Мукукенова (Диляра)
Описание: Мария возвращается в город, где живет ее семья, ее друзья — те, кого она любит больше жизни, те, с которыми она была разлучена на долгие шесть лет. Мария была осуждена за убийство.Маленький городок, где все знают друг друга, до сих пор в недоумении: как молодая женщина могла убить своего мужа? Только сама Мария знает правду и цену этого трагического события из прошлого. Долгожданное возвращение домой становится для нее настоящим испытанием.
Качество: SATRip
Формат: AVI
Видео кодек: XviD
Аудио кодек: MP3
Видео: 720x400 (16:9), 25.000 fps, XviD, 1 987 Kbps
Аудио: Аудио #1: MP3, 192 Kbps, 48.0 KHz, 2 ch

МедиаИнфо

Код: copyText_writeLink('this.parentNode.parentNode.nextSibling.nextSibling'); General
Complete name : Obratniy.bilet.2012.SATRip.KinozalSAT.avi
Format : AVI
Format/Info : Audio Video Interleave
File size : 1.37 GiB
Duration : 1h 29mn
Overall bit rate : 2 186 Kbps
Writing application : VirtualDubMod 1.5.4.1 (build 2178/release)
Writing library : VirtualDubMod build 2178/release
Video
ID : 0
Format : MPEG-4 Visual
Format profile : Advanced Simple@L5
Format settings, BVOP : No
Format settings, QPel : No
Format settings, GMC : No warppoints
Format settings, Matrix : Custom
Codec ID : XVID
Codec ID/Hint : XviD
Duration : 1h 29mn
Bit rate : 1 987 Kbps
Width : 720 pixels
Height : 400 pixels
Display aspect ratio : 16:9
Frame rate : 25.000 fps
Color space : YUV
Chroma subsampling : 4:2:0
Bit depth : 8 bits
Scan type : Progressive
Bits/(Pixel*Frame) : 0.276
Stream size : 1.24 GiB (91%)
Writing library : XviD 64
Audio
ID : 1
Format : MPEG Audio
Format version : Version 1
Format profile : Layer 3
Mode : Joint stereo
Mode extension : MS Stereo
Codec ID : 55
Codec ID/Hint : MP3
Duration : 1h 29mn
Bit rate mode : Constant
Bit rate : 192 Kbps
Channel(s) : 2 channels
Sampling rate : 48.0 KHz
Stream size : 123 MiB (9%)
Alignment : Aligned on interleaves
Interleave, duration : 80 ms (2.00 video frames)
Interleave, preload duration : 504 ms
Writing library : LAME3.98r
Encoding settings : -m j -V 4 -q 2 -lowpass 18.6 -b 192

Скриншоты


_________________
Показать сообщения:    

Текущее время: Сегодня 09:19

Часовой пояс: GMT



Вы не можете начинать темы
Вы не можете отвечать на сообщения
Вы не можете редактировать свои сообщения
Вы не можете удалять свои сообщения
Вы не можете голосовать в опросах
Вы не можете прикреплять файлы к сообщениям
Вы не можете скачивать файлы
Наши партнеры: интернет магазин Ивановского трикотажа textilla.ru