Важное объявление!
У Нас Все раздачи мультитрекерные, при нуле пиров в релизах, можете смело вставать на закачку!
 
Автор Сообщение

димитри37

Стаж:
3 года 10 месяцев
Сообщений:
1237

Репутация: 127

[+] [-]
Вне форума [Профиль] [ЛС]

Оборотень / Ginger Snaps
Страна: Канада
Жанр: ужасы
Год выпуска: 2000
Продолжительность: 01:48:09
Перевод: Профессиональный (двухголосый закадровый)
Оригинальная аудиодорожка: отсутствует
Cубтитры: отсутствуют
Режиссер: Джон Фоусет / John Fawcett
В ролях: Эмили Перкинс (Бриджит Фитцджеральд), Кэтрин Изабель (Джинджер Фитцджеральд), Крис Лемке (Сэм МакДональд), Мими Роджерс (Памела Фитцджеральд), Джесси Мосс (Джейсон МакКарди), Даниэль Хэмптон (Трина Синклэр), Джон Буржуа (Генри Фитцджеральд), Питер Келеган (Мистер Уэйн), Кристофер Редман (Бен), Джимми МакИннис (Тим)
Описание: 16-летняя Джинджер и ее младшая сестра Бриджитт очень любят снимать на видеокамеру «фильмы ужасов», безжалостно расходуя огромное количество красной краски. И вообще развлекаются как только могут. Однажды во время одной из ночных вылазок на Джинджер нападает какое-то огромное чудовище. Бриджитт помогает скрыть следы укусов от родителей. К удивлению сестер, раны быстро затягиваются. Но когда с Джинджер начинают происходить какие-то странные изменения, девочки понимают, что их проблемы только начинаются...

Качество: WEB-DLRip-AVC / WEB-DL 1080p
Контейнер: MKV
Видео: MPEG-4 AVC, 1024x576 (16:9), ~2508 kbps, 23.976 fps, 0.177 bit/pixel
Аудио: Russian, Audio Coding 3, DD 5.1 ch, 48 kHz, CBR 384 kbps

MI

x264 log

---[Information] [22.06.2013 3:48:31] x264 [info]: frame I:1127 Avg QP:17.54 size: 70321
---[Information] [22.06.2013 3:48:31] x264 [info]: frame P:39221 Avg QP:20.09 size: 22655
---[Information] [22.06.2013 3:48:31] x264 [info]: frame B:115244 Avg QP:21.87 size: 9247
---[Information] [22.06.2013 3:48:31] x264 [info]: consecutive B-frames: 1.7% 4.0% 5.5% 65.1% 7.7% 14.0% 1.1% 0.6% 0.2% 0.1%
---[Information] [22.06.2013 3:48:31] x264 [info]: mb I I16..4: 6.9% 76.4% 16.6%
---[Information] [22.06.2013 3:48:31] x264 [info]: mb P I16..4: 3.0% 16.5% 1.8% P16..4: 30.9% 32.9% 9.5% 0.0% 0.0% skip: 5.4%
---[Information] [22.06.2013 3:48:31] x264 [info]: mb B I16..4: 0.5% 3.1% 0.2% B16..8: 33.1% 16.3% 2.4% direct: 8.5% skip:36.0% L0:38.2% L1:48.9% BI:12.9%
---[Information] [22.06.2013 3:48:31] x264 [info]: 8x8 transform intra:78.4% inter:61.6%
---[Information] [22.06.2013 3:48:31] x264 [info]: direct mvs spatial:99.1% temporal:0.9%
---[Information] [22.06.2013 3:48:31] x264 [info]: coded y,uvDC,uvAC intra: 80.1% 63.4% 30.8% inter: 25.7% 18.0% 1.1%
---[Information] [22.06.2013 3:48:31] x264 [info]: i16 v,h,dc,p: 30% 18% 8% 44%
---[Information] [22.06.2013 3:48:31] x264 [info]: i8 v,h,dc,ddl,ddr,vr,hd,vl,hu: 10% 7% 7% 10% 13% 14% 12% 13% 14%
---[Information] [22.06.2013 3:48:31] x264 [info]: i4 v,h,dc,ddl,ddr,vr,hd,vl,hu: 15% 8% 5% 8% 14% 15% 12% 11% 12%
---[Information] [22.06.2013 3:48:31] x264 [info]: i8c dc,h,v,p: 31% 30% 21% 17%
---[Information] [22.06.2013 3:48:31] x264 [info]: Weighted P-Frames: Y:4.7% UV:2.8%
---[Information] [22.06.2013 3:48:31] x264 [info]: ref P L0: 51.2% 7.9% 15.5% 6.9% 4.9% 3.7% 2.9% 1.6% 1.3% 1.1% 0.9% 0.8% 0.6% 0.5% 0.0% 0.0%
---[Information] [22.06.2013 3:48:31] x264 [info]: ref B L0: 81.5% 9.0% 3.8% 1.7% 1.1% 0.8% 0.7% 0.4% 0.3% 0.2% 0.2% 0.1% 0.1%
---[Information] [22.06.2013 3:48:31] x264 [info]: ref B L1: 95.7% 4.3%
General
Unique ID : 184567837724736893317294003066873081385 (0x8ADA78F8ACEFAC50AEFA96E366CC6E29)
Complete name : Ginger Snaps.mkv
Format : Matroska
Format version : Version 2
File size : 2.19 GiB
Duration : 1h 48mn
Overall bit rate : 2 892 Kbps
Movie name : Ginger Snaps / Оборотень (2000)
Encoded date : UTC 2013-06-25 05:43:01
Writing application : mkvmerge v5.8.0 ('No Sleep / Pillow') built on Sep 2 2012 15:37:04
Writing library : libebml v1.2.3 + libmatroska v1.3.0
Video
ID : 1
Format : AVC
Format/Info : Advanced Video Codec
Format profile : High@L4.1
Format settings, CABAC : Yes
Format settings, ReFrames : 14 frames
Codec ID : V_MPEG4/ISO/AVC
Duration : 1h 48mn
Bit rate : 2 508 Kbps
Width : 1 024 pixels
Height : 576 pixels
Display aspect ratio : 16:9
Frame rate : 23.976 fps
Color space : YUV
Chroma subsampling : 4:2:0
Bit depth : 8 bits
Scan type : Progressive
Bits/(Pixel*Frame) : 0.177
Stream size : 1.85 GiB (85%)
Title : Ginger Snaps (2000)
Writing library : x264 core 133 r2334 a3ac64b
Encoding settings : cabac=1 / ref=14 / deblock=1:-1:-1 / analyse=0x3:0x113 / me=umh / subme=11 / psy=1 / psy_rd=1.00:0.15 / mixed_ref=1 / me_range=32 / chroma_me=1 / trellis=2 / 8x8dct=1 / cqm=0 / deadzone=21,11 / fast_pskip=0 / chroma_qp_offset=-3 / threads=12 / lookahead_threads=2 / sliced_threads=0 / nr=0 / decimate=1 / interlaced=0 / bluray_compat=0 / constrained_intra=0 / bframes=9 / b_pyramid=2 / b_adapt=2 / b_bias=0 / direct=3 / weightb=1 / open_gop=0 / weightp=2 / keyint=240 / keyint_min=23 / scenecut=40 / intra_refresh=0 / rc_lookahead=40 / rc=2pass / mbtree=1 / bitrate=2508 / ratetol=1.0 / qcomp=0.70 / qpmin=10 / qpmax=51 / qpstep=4 / cplxblur=20.0 / qblur=0.5 / vbv_maxrate=62500 / vbv_bufsize=78125 / nal_hrd=none / ip_ratio=1.40 / aq=2:1.00
Language : English
Default : Yes
Forced : No
Audio
ID : 2
Format : AC-3
Format/Info : Audio Coding 3
Mode extension : CM (complete main)
Format settings, Endianness : Big
Codec ID : A_AC3
Duration : 1h 48mn
Bit rate mode : Constant
Bit rate : 384 Kbps
Channel(s) : 6 channels
Channel positions : Front: L C R, Side: L R, LFE
Sampling rate : 48.0 KHz
Bit depth : 16 bits
Compression mode : Lossy
Stream size : 297 MiB (13%)
Title : DVO (Твистер)
Language : Russian
Default : Yes
Forced : No
Menu
00:00:00.000 : en:Chapter 1
00:08:03.000 : en:Chapter 2
00:10:58.000 : en:Chapter 3
00:13:25.000 : en:Chapter 4
00:15:11.000 : en:Chapter 5
00:22:19.000 : en:Chapter 6
00:23:59.000 : en:Chapter 7
00:26:21.000 : en:Chapter 8
00:29:08.000 : en:Chapter 9
00:31:23.000 : en:Chapter 10
00:32:27.000 : en:Chapter 11
00:35:05.000 : en:Chapter 12
00:37:40.000 : en:Chapter 13
00:39:50.000 : en:Chapter 14
00:44:13.000 : en:Chapter 15
00:47:39.000 : en:Chapter 16
00:51:31.000 : en:Chapter 17
00:57:05.000 : en:Chapter 18
01:00:18.000 : en:Chapter 19
01:01:54.000 : en:Chapter 20
01:04:46.000 : en:Chapter 21
01:09:02.000 : en:Chapter 22
01:11:05.000 : en:Chapter 23
01:12:34.000 : en:Chapter 24
01:13:31.000 : en:Chapter 25
01:18:36.000 : en:Chapter 26
01:25:44.000 : en:Chapter 27
01:45:07.000 : en:Chapter 28

Скриншоты


-
Показать сообщения:    

Текущее время: Сегодня 16:51

Часовой пояс: GMT



Вы не можете начинать темы
Вы не можете отвечать на сообщения
Вы не можете редактировать свои сообщения
Вы не можете удалять свои сообщения
Вы не можете голосовать в опросах
Вы не можете прикреплять файлы к сообщениям
Вы не можете скачивать файлы
Наши партнеры: интернет магазин Ивановского трикотажа textilla.ru