Ивановский Торрент трекер
Яндекс.Погода
 

[Цитировать]
HUNTER

Оборона Лотковой
Год выпуска: 2013
Страна: Россия
Жанр: журналистское расследование
Продолжительность: 00:25:22
Перевод: Не требуется
Русские субтитры: нет
Описание: Новые подробности происшествия в московском метро, в ходе которого студентка применила травматический пистолет. В студии адвокат Александры Лотковой Ярослав Пакулин и председатель правления движения «Право на оружие» Мария Бутина. Ведущий Сергей Харцызов.
качество: WEBRip
формат: AVI
видеокодек: XviD
аудиокодек: MP3
Видео: MPEG4, XviD, 720x406 (16:9), 25.000 fps, 649 Kbps (0.089 bit/pixel)
Аудио: MP3, 48.0 KHz, 2 ch, 192 Kbps, CBR

MediaInfo

General
Complete name : C:\Users\Администратор\Videos\Оборона Лотковой.avi
Format : AVI
Format/Info : Audio Video Interleave
File size : 155 MiB
Duration : 25mn 24s
Overall bit rate : 854 Kbps
Writing application : Lavf52.94.0
Video
ID : 0
Format : MPEG-4 Visual
Format profile : Simple@L3
Format settings, BVOP : No
Format settings, QPel : No
Format settings, GMC : No warppoints
Format settings, Matrix : Default (H.263)
Codec ID : XVID
Codec ID/Hint : XviD
Duration : 25mn 24s
Bit rate : 649 Kbps
Width : 720 pixels
Height : 406 pixels
Display aspect ratio : 16:9
Frame rate : 25.000 fps
Color space : YUV
Chroma subsampling : 4:2:0
Bit depth : 8 bits
Scan type : Progressive
Bits/(Pixel*Frame) : 0.089
Stream size : 118 MiB (76%)
Writing library : XviD 1.2.1 (UTC 2008-12-04)
Audio
ID : 1
Format : MPEG Audio
Format version : Version 1
Format profile : Layer 3
Mode : Joint stereo
Codec ID : 55
Codec ID/Hint : MP3
Duration : 25mn 24s
Bit rate mode : Constant
Bit rate : 192 Kbps
Channel(s) : 2 channels
Sampling rate : 48.0 KHz
Stream size : 34.9 MiB (22%)
Alignment : Aligned on interleaves
Interleave, duration : 24 ms (0.60 video frame)

Скриншоты

0 человек читают эту тему: 0 пользователей, 0 скрытых пользователей, 0 гостей

Показать сообщения:    

Текущее время: 23-Авг 05:25

Часовой пояс: UTC - 1


Вы не можете начинать темы
Вы не можете отвечать на сообщения
Вы не можете редактировать свои сообщения
Вы не можете удалять свои сообщения
Вы не можете голосовать в опросах
Вы не можете прикреплять файлы к сообщениям
Вы не можете скачивать файлы

!ВНИМАНИЕ!
Сайт не предоставляет электронные версии произведений, а занимается лишь коллекционированием и каталогизацией ссылок, присылаемых и публикуемых на форуме нашими читателями. Если вы являетесь правообладателем какого-либо представленного материала и не желаете, чтобы ссылка на него находилась в нашем каталоге, свяжитесь с нами, и мы незамедлительно удалим ее. Файлы для обмена на трекере предоставлены пользователями сайта, и администрация не несет ответственности за их содержание. Просьба не заливать файлы, защищенные авторскими правами, а также файлы нелегального содержания!