Важное объявление!
У Нас Все раздачи мультитрекерные, при нуле пиров в релизах, можете смело вставать на закачку!
 
Автор Сообщение

HUNTER

Стаж:
4 года 10 месяцев
Сообщений:
65576

Репутация: 101

[+] [-]
Вне форума [Профиль] [ЛС]

Обличитель / Tell-Tale

-
-Страна: США, Великобритания
Студия: Artina Films, Oceana Media Finance, Poe Boy Productions, Scott Free Productions, Social Capital, Steel Company, The, Tax Credit Finance
Жанр: ужасы, фантастика, триллер, драма
Год выпуска: 2009
Продолжительность: 01:32:22--Перевод 1: Профессиональный (двухголосый закадровый) студия NLS
Перевод 2: Любительский (двухголосый закадровый)
Cубтитры: английские
Оригинальная аудиодорожка: английский--Режиссер: Майкл Куэста / Michael Cuesta
В ролях: Джош Лукас, Лина Хиди, Брайан Кокс, Беатрис Миллер, Джэми Харольд, Майкл К. Уильямс, Пабло Шрайбер, Том Риис Фаррелл, Ульрих Томсен, Даллас Робертс, Пег Хольцмер, Скотт Уинтерс, Кара Ланд, Джон Тимоти Ботка, Аллисон Александр, Том Кемп, Джулия Райан, Эмилио Куэста, Мэттью Е. Чоссе, Эллен Бекео-Грэй, Гэйл Бугея, Дезире Эйприл Коннолли, Дерек Кормье--Описание: Главному герою фильма пересаживают чужое сердце, после чего, спустя некоторое время, он начинает ощущать головные боли и видеть видения, сопровождающиеся сердечными приступами. Начатое расследование открывает тайну — герою пересадили сердце убитого человека, и оно настоятельно желает исполнения правосудия от своего нового носителя…--imdb | kinopoisk | Сэмпл--Тип релиза: BDRemux 1080p [Tell-Tale 2009 1080p Blu-ray AVC DTS-HD MA 5.1-BluEvo]
Контейнер: MKV
Видео: MPEG-4 AVC / 28971 kbps / 1920x1080 / 23,976 fps / 16:9 / High Profile 4.1
Аудио 1: Russian AC3 / 2.0 / 48 kHz / 192 kbps / 16 bits |DVO, студия NLS|
Аудио 2: Russian AC3 / 5.1 / 48 kHz / 320 kbps / 16 bits |DVO|
Аудио 3: English DTS-HD Master Audio / 5.1 / 48 kHz / 2003 kbps / 16 bits (DTS Core: 5.1 / 48 kHz / 1509 kbps / 16 bits) |original|
Формат субтитров: softsub [SRT]

MediaInfo

Код:
Общее
Уникальный идентификатор                 : 170970411100693730761228007324272267424 (0x809FB414453ACD81941A1065B2F390A0)
Полное имя                               : G:\HD\Обличитель.2009.Blu-Ray.Remux.(1080p)_arxivariys.mkv
Формат                                   : Matroska
Версия формата                           : Version 4 / Version 2
Размер файла                             : 20,3 Гбайт
Продолжительность                        : 1 ч. 32 м.
Режим общего битрейта                    : Переменный
Общий поток                              : 31,5 Мбит/сек
Дата кодирования                         : UTC 2014-12-20 19:30:15
Программа кодирования                    : mkvmerge v7.4.0 ('Circles') 64bit built on Dec 12 2014 12:19:56
Библиотека кодирования                   : libebml v1.3.0 + libmatroska v1.4.1
Attachements                             : poster.jpg
Видео
Идентификатор                            : 1
Формат                                   : AVC
Формат/Информация                        : Advanced Video Codec
Профиль формата                          : High@L4.1
Параметр CABAC формата                   : Да
Параметр ReFrames формата                : 4 кадра
Идентификатор кодека                     : V_MPEG4/ISO/AVC
Продолжительность                        : 1 ч. 32 м.
Вид битрейта                             : Переменный
Максимальный битрейт                     : 34,0 Мбит/сек
Ширина                                   : 1920 пикселей
Высота                                   : 1080 пикселей
Соотношение сторон                       : 16:9
Режим частоты кадров                     : Постоянный
Частота кадров                           : 23,976 кадра/сек
Стандарт вещания                         : NTSC
Цветовое пространство                    : YUV
Субдискретизация насыщенности            : 4:2:0
Битовая глубина                          : 8 бит
Тип развёртки                            : Прогрессивная
Default                                  : Да
Forced                                   : Нет
Основные цвета                           : BT.709
Характеристики трансфера                 : BT.709
Коэффициенты матрицы                     : BT.709
colour_range                             : Limited
Аудио #1
Идентификатор                            : 2
Формат                                   : AC-3
Формат/Информация                        : Audio Coding 3
Расширение режима                        : CM (complete main)
Параметр Endianness формата              : Big
Идентификатор кодека                     : A_AC3
Продолжительность                        : 1 ч. 32 м.
Вид битрейта                             : Постоянный
Битрейт                                  : 192 Кбит/сек
Каналы                                   : 2 канала
Расположение каналов                     : Front: L R
Частота                                  : 48,0 КГц
Битовая глубина                          : 16 бит
Метод сжатия                             : С потерями
Размер потока                            : 127 Мбайт (1%)
Заголовок                                : DVO, студия NLS
Язык                                     : Russian
Default                                  : Да
Forced                                   : Нет
Аудио #2
Идентификатор                            : 3
Формат                                   : AC-3
Формат/Информация                        : Audio Coding 3
Расширение режима                        : CM (complete main)
Параметр Endianness формата              : Big
Идентификатор кодека                     : A_AC3
Продолжительность                        : 1 ч. 32 м.
Вид битрейта                             : Постоянный
Битрейт                                  : 320 Кбит/сек
Каналы                                   : 6 каналов
Расположение каналов                     : Front: L C R, Side: L R, LFE
Частота                                  : 48,0 КГц
Битовая глубина                          : 16 бит
Метод сжатия                             : С потерями
Размер потока                            : 211 Мбайт (1%)
Заголовок                                : DVO
Язык                                     : Russian
Default                                  : Нет
Forced                                   : Нет
Аудио #3
Идентификатор                            : 4
Формат                                   : DTS
Формат/Информация                        : Digital Theater Systems
Профиль формата                          : MA / Core
Режим                                    : 16
Параметр Endianness формата              : Big
Идентификатор кодека                     : A_DTS
Продолжительность                        : 1 ч. 32 м.
Вид битрейта                             : Переменный
Битрейт                                  : Неизвестно / 1509 Кбит/сек
Каналы                                   : 6 каналов
Расположение каналов                     : Front: L C R, Side: L R, LFE
Частота                                  : 48,0 КГц
Битовая глубина                          : 16 бит
Метод сжатия                             : Без потерь / Lossy
Язык                                     : English
Default                                  : Нет
Forced                                   : Нет
Текст
Идентификатор                            : 5
Формат                                   : UTF-8
Идентификатор кодека                     : S_TEXT/UTF8
Идентификатор кодека/Информация          : UTF-8 Plain Text
Язык                                     : English
Default                                  : Нет
Forced                                   : Нет
Меню
00:00:00.000                             : :Transplant
00:08:56.410                             : :First Kiss
00:15:08.991                             : :Detective
00:25:07.130                             : :Homicide
00:32:15.725                             : :Angry Heart
00:42:01.101                             : :Vengeance
00:47:52.619                             : :Retribution
00:55:31.661                             : :Harry
01:03:40.358                             : :Won't Let Go
01:12:17.041                             : :Numb
01:16:41.263                             : :Unstoppable
01:24:53.505                             : :End Credits

Скриншоты


Дополнительно

Цитата:
Дорожка №1 взята с этой раздачи thx: 25k
Дорожка №2 взята с этой раздачи thx: lexa_890k

_________________
Показать сообщения:    

Текущее время: Сегодня 09:13

Часовой пояс: GMT



Вы не можете начинать темы
Вы не можете отвечать на сообщения
Вы не можете редактировать свои сообщения
Вы не можете удалять свои сообщения
Вы не можете голосовать в опросах
Вы не можете прикреплять файлы к сообщениям
Вы не можете скачивать файлы