Облик грядущего / Things To Come (Уильям Кэмерон Мензиес / William Cameron Menzies) [1936 г., Великобритания, фантастика, BDRip 720p] [Criterion #660] DVO (СВ-Дубль) + Original Eng + Sub (Rus, Eng) :: Ивановский Торрент трекер
Важное объявление!
У Нас Все раздачи мультитрекерные, при нуле пиров в релизах, можете смело вставать на закачку!
 
Автор Сообщение

HUNTER

Стаж:
4 года 11 месяцев
Сообщений:
66051

Репутация: 101

[+] [-]
Вне форума [Профиль] [ЛС]

Облик грядущего / Things To Come-
Год выпуска: 1936
Страна: Великобритания
Жанр: фантастика
Продолжительность: 01:37:06
Перевод: Профессиональный (двухголосый закадровый) СВ-Дубль по заказу ГТРК "Культура"
Оригинальная аудиодорожка: Анлийская
Cубтитры: Русские (форсированные на непереведенные места, полные), английские (полные, для слабослышащих)-Режиссер: Уильям Кэмерон Мензиес / William Cameron Menzies
В ролях: Рэймонд Мэсси, Эдвард Чэпман, Ральф Ричардсон, Маргаретта Скотт, Седрик Хардвик, Морис Браддель, Софи Стюарт, Деррик Де Марни, Энн Тодд, Перл Эргил-Описание: По сценарию Герберта Уэллса.
Город Эвритаун, 1940 год. Канун Рождества. Люди готовятся к празднику, на улицах много гуляющих, звучат песни. Но в то же время повсюду рядом с надписями в честь Рождества — на плакатах, расклеенных на стенах, на трамваях, в крупных газетных заголовках — слово «война», «угроза войны», «мир на пороге войны», «европейский ультиматум». В уютной мирной квартире Джона Кэбела трое мужчин, в том числе Пиппа Пассуорти, обсуждают последние события.
Звон рождественских колоколов вдруг разбивается отдалёнными разрывами. Ночное небо перечёркивают лучи прожекторов. Учения? На Рождество? Звонок телефона. Мобилизация! По радио объявляют, что флот и города подверглись нападению неопознанных самолётов...-За дорожку спасибо Nick L., за субтитры спасибо cbuhh, сделаны на основе Пер. - С.Займовский. "Собрание сочинений в 15-ти томах. Том 13". М., "Правда", 1964 (Б-ка "Огонек") и субтитров неизвестного автора.
| IMDb | Сэмпл-Качество: BDRip 720p (CtrlHD)
Контейнер: MKV
Видео: x264, 986x720 (1.37:1), 23.976 fps, 11325 kbps
Аудио 1: Русский AC3 2.0, 48 kHz, 192 kbps
Аудио 2: Английский FLAC 1.0, 48 kHz, 195 kbps
Аудио 3: Английский AC3 1.0, 48 kHz, 192 kbps — Комментарии
Формат субтитров: softsub (SRT)

Скриншоты

Source vs CtrlHD vs HD4U





MI

nfo
.GENERAL iNFORMATiON
RUNTiME....... 1h:37m:06s
SiZE.......... 7.95GB
ViDEO.CODEC... x264, CRF18, L4.1
FRAMERATE..... 23,976fps
BiTRATE....... 11100Kbps
RESOLUTiON.... 986x720
AUDiO1........ English FLAC 1.0 @ 195kbps
AUDiO2........ English DD 1.0 @ 192kbps
(Recorded by the Criterion Collection in 2013, features film historian David Kalat.)
SUBTiTLES..... English,Eng-SDH
SUBS.FORMAT... UTF-8 srt
CHAPTERS...... Named like on Blu-ray
SOURCE........ Things to Come 1936 1080p Blu-ray AVC LPCM 1.0-ESiR
iMDB.RATiNG... 6.8/10 (3,947votes)
iMDB.LiNK..... http://www.imdb.com/title/tt0028358/
.LOG
x264 [info]: frame I:902 Avg QP:19.52 size: 86026
x264 [info]: frame P:23415 Avg QP:20.22 size: 65821
x264 [info]: frame B:115387 Avg QP:21.15 size: 57459
x264 [info]: consecutive B-frames: 0.9% 0.5% 1.2% 8.7% 9.3% 47.4% 9.9% 7.6% 9.3% 5.3%
encoded 139704 frames, 3.367 fps, 11325.26 kb/s, 7866.6 MB
General
Unique ID : 176562908272887229562115550150096970802 (0x84D4C77A60AEE56C80976A83C7EDE432)
Complete name : Things to Come 1936 720p BluRay x264-CtrlHD.mkv
Format : Matroska
Format version : Version 2
File size : 8.08 GiB
Duration : 1h 37mn
Overall bit rate mode : Variable
Overall bit rate : 11.9 Mbps
Movie name : Things To Come / Облик грядущего (1939) – RuTracker
Encoded date : UTC 2015-02-03 18:41:45
Writing application : mkvmerge v7.5.0 ('Glass Culture') 64bit built on Jan 4 2015 16:48:44
Writing library : libebml v1.3.1 + libmatroska v1.4.2
Attachements : cover.jpg
Video
ID : 1
Format : AVC
Format/Info : Advanced Video Codec
Format profile : High@L4.1
Format settings, CABAC : Yes
Format settings, ReFrames : 11 frames
Codec ID : V_MPEG4/ISO/AVC
Duration : 1h 37mn
Width : 986 pixels
Height : 720 pixels
Display aspect ratio : 4:3
Frame rate mode : Constant
Frame rate : 23.976 fps
Color space : YUV
Chroma subsampling : 4:2:0
Bit depth : 8 bits
Scan type : Progressive
Title : Things to Come 1936 720p BluRay FLAC1.0 x264-CtrlHD
Writing library : x264 core 142 r2409+42 04be48a tMod [8-bit@all X86_64]
Encoding settings : cabac=1 / ref=11 / deblock=1:-3:-3 / analyse=0x3:0x113 / me=umh / subme=10 / psy=1 / fade_compensate=0.00 / psy_rd=1.15:0.00 / mixed_ref=1 / me_range=16 / chroma_me=0 / trellis=2 / 8x8dct=1 / cqm=0 / deadzone=21,11 / fast_pskip=0 / chroma_qp_offset=-2 / threads=6 / lookahead_threads=1 / sliced_threads=0 / nr=0 / decimate=0 / interlaced=0 / bluray_compat=0 / constrained_intra=0 / fgo=0 / bframes=9 / b_pyramid=2 / b_adapt=2 / b_bias=0 / direct=3 / weightb=1 / open_gop=0 / weightp=2 / keyint=250 / keyint_min=23 / scenecut=40 / intra_refresh=0 / rc_lookahead=60 / rc=crf / mbtree=0 / crf=18.0000 / qcomp=0.70 / qpmin=0:0:0 / qpmax=69:69:69 / qpstep=4 / vbv_maxrate=62500 / vbv_bufsize=78125 / crf_max=0.0 / nal_hrd=none / filler=0 / ip_ratio=1.20 / pb_ratio=1.10 / aq=1:0.50 / aq-sensitivity=10.00 / aq-factor=1.00:1.00:1.00 / aq2=0 / aq3=0
Language : English
Default : Yes
Forced : No
Audio #1
ID : 2
Format : AC-3
Format/Info : Audio Coding 3
Mode extension : CM (complete main)
Format settings, Endianness : Big
Codec ID : A_AC3
Duration : 1h 37mn
Bit rate mode : Constant
Bit rate : 192 Kbps
Channel(s) : 2 channels
Channel positions : Front: L R
Sampling rate : 48.0 KHz
Bit depth : 16 bits
Compression mode : Lossy
Stream size : 133 MiB (2%)
Title : DVO – СВ-Дубль
Language : Russian
Default : Yes
Forced : No
Audio #2
ID : 3
Format : FLAC
Format/Info : Free Lossless Audio Codec
Codec ID : A_FLAC
Duration : 1h 37mn
Bit rate mode : Variable
Channel(s) : 1 channel
Sampling rate : 48.0 KHz
Bit depth : 16 bits
Title : Original
Writing library : libFLAC 1.2.1 (UTC 2007-09-17)
Language : English
Default : No
Forced : No
Audio #3
ID : 4
Format : AC-3
Format/Info : Audio Coding 3
Mode extension : CM (complete main)
Format settings, Endianness : Big
Codec ID : A_AC3
Duration : 1h 37mn
Bit rate mode : Constant
Bit rate : 192 Kbps
Channel(s) : 1 channel
Channel positions : Front: C
Sampling rate : 48.0 KHz
Bit depth : 16 bits
Compression mode : Lossy
Stream size : 133 MiB (2%)
Title : Commentary by film historian David Kalat
Language : English
Default : No
Forced : No
Text #1
ID : 5
Format : UTF-8
Codec ID : S_TEXT/UTF8
Codec ID/Info : UTF-8 Plain Text
Title : forced
Language : Russian
Default : Yes
Forced : Yes
Text #2
ID : 6
Format : UTF-8
Codec ID : S_TEXT/UTF8
Codec ID/Info : UTF-8 Plain Text
Language : Russian
Default : No
Forced : No
Text #3
ID : 7
Format : UTF-8
Codec ID : S_TEXT/UTF8
Codec ID/Info : UTF-8 Plain Text
Language : English
Default : No
Forced : No
Text #4
ID : 8
Format : UTF-8
Codec ID : S_TEXT/UTF8
Codec ID/Info : UTF-8 Plain Text
Title : SDH
Language : English
Default : No
Forced : No
Menu
00:00:00.000 : en:01. 1940,Everytown
00:07:32.577 : en:02. "Stand to Arms!"
00:17:36.973 : en:03. War marches on
00:22:54.873 : en:04. The Wandering Sickness
00:31:46.154 : en:05. The Boss returns
00:42:26.836 : en:06. Forced to extremities
00:50:31.070 : en:07. A greater world than this
00:58:44.896 : en:08. "Long Live the Chief"
01:06:27.108 : en:09. Building the new city
01:12:07.448 : en:10. 2036,Everytown
01:28:01.109 : en:11. The Space Gun

_________________
Показать сообщения:    

Текущее время: Сегодня 03:49

Часовой пояс: GMT



Вы не можете начинать темы
Вы не можете отвечать на сообщения
Вы не можете редактировать свои сообщения
Вы не можете удалять свои сообщения
Вы не можете голосовать в опросах
Вы не можете прикреплять файлы к сообщениям
Вы не можете скачивать файлы