Важное объявление!
У Нас Все раздачи мультитрекерные, при нуле пиров в релизах, можете смело вставать на закачку!
Статистика раздачи
Размер:     |    Зарегистрирован:     |    Скачан:     |   
Нет
 
     
 
 
Автор Сообщение

HUNTER

Стаж:
5 лет
Сообщений:
68004

Репутация: 101

[+] [-]
Вне форума [Профиль] [ЛС]

-Облачный атлас / Cloud Atlas-
Год выпуска: 2012
Страна: США, Германия, Гонконг, Сингапур | A Company Filmproduktionsgesellschaft, Anarchos Pictures
Жанр: Фантастика, Детектив, Драма
Продолжительность: 02:45:04
Перевод: Дублированный [лицензия]
Субтитры: Отсутствуют-В ролях: Том Хэнкс, Хьюго Вивинг, Хью Грант, Джим Старгесс, Сьюзан Сарандон, Холли Берри, Бен Уишоу, Кит Дэвид, Сюнь Чжоу, Джим Броадбент, Джеймс Д`Арси, Ту-на Пэ, Чжу Чжу, Готц Отто, эвид Гяси, Элистер Петри, Риван Ли Хейнан, Луис Демпси, Валери Лиллибет, Даниэль Риззо, Мия-Лесия Нэйлор, Робин Мориссей, Броуди Николас Ли, Лаура Витзен, Лили Шоетт, Юнг Хьюн Джун, Мартин Догерти, Корбин Ховк Хейнан, Лиз Стрэйндж, Бэрри Ван Ли, Александр Яссин
Режиссёр: Лана Вачовски, Том Тыквер, Энди Вачовски-Описание: «Облачный атлас» подобен зеркальному лабиринту, в котором перекликаются, наслаиваясь друг на друга, шесть голосов: нотариуса середины девятнадцатого века, возвращающегося в США из Австралии; молодого композитора, вынужденного торговать душой и телом в Европе между мировыми войнами; журналистки в Калифорнии 1970-х, раскрывающей корпоративный заговор; мелкого издателя — нашего современника, умудрившегося сорвать банк на бандитской автобиографии «Удар кастетом» и бегущего от кредиторов; клона-прислуги из предприятия быстрого питания в Корее — стране победившего киберпанка; и гавайского козопаса на закате цивилизации.
Шесть историй — пять реинкарнаций, происходящих в разное время, тесно переплетаются между собой…-Качество: BDRip 720p
Формат: MKV
Видео кодек: H.264
Аудио кодек: DTS
Видео: 1280x544, 59.94 fps, 13.5 Мbps avg, 0.304 bit/pixel
Аудио: 48 kHz, DTS, 3/2 (L,C,R,l,r) + LFE ch, ~1510 kbps avg (RUS)- -

Трейлер

MediaInfo

General
Unique ID : 186766233668439101726418953652930593517 (0x8C81DE4280A15B718544AADAEDFFC2ED)
Complete name :Облачный атлас (2012) BDRip [720p 60fps].mkv
Format : Matroska
Format version : Version 2
File size : 17.4 GiB
Duration : 2h 52mn
Overall bit rate : 14.5 Mbps
Encoded date : UTC 2012-12-18 16:41:35
Writing application : mkvmerge v3.4.0 ('Rapunzel') сборка от May 18 2010 22:32:11
Writing library : libebml v0.8.0 + libmatroska v0.9.0
Video
ID : 1
Format : AVC
Format/Info : Advanced Video Codec
Format profile : [url=mailto:High@L4.1]High@L4.1[/url]
Format settings, CABAC : Yes
Format settings, ReFrames : 9 frames
Codec ID : V_MPEG4/ISO/AVC
Duration : 2h 52mn
Bit rate : 12.7 Mbps
Nominal bit rate : 13.5 Mbps
Width : 1 280 pixels
Height : 544 pixels
Display aspect ratio : 2.35:1
Frame rate mode : Variable
Frame rate : 59.940 fps
Color space : YUV
Chroma subsampling : 4:2:0
Bit depth : 8 bits
Scan type : Progressive
Bits/(Pixel*Frame) : 0.304
Stream size : 15.3 GiB (88%)
Title : Облачный атлас (2012) BDRip 720p 60fps (русский локализованный видеоряд)
Writing library : x264 core 120 r2120kMod 0c7dab9
Encoding settings : cabac=1 / ref=9 / deblock=1:0:0 / analyse=0x3:0x113 / me=umh / subme=7 / psy=1 / fade_compensate=0.00 / psy_rd=1.00:0.00 / mixed_ref=1 / me_range=16 / chroma_me=1 / trellis=2 / 8x8dct=1 / cqm=0 / deadzone=21,11 / fast_pskip=1 / chroma_qp_offset=-2 / threads=4 / sliced_threads=1 / slices=4 / nr=0 / decimate=1 / interlaced=0 / bluray_compat=0 / constrained_intra=0 / bframes=7 / b_pyramid=2 / b_adapt=2 / b_bias=0 / direct=3 / weightb=1 / open_gop=0 / weightp=2 / keyint=300 / keyint_min=30 / scenecut=40 / intra_refresh=0 / rc=abr / mbtree=0 / bitrate=13500 / ratetol=1.0 / qcomp=0.60 / qpmin=10 / qpmax=51 / qpstep=4 / ip_ratio=1.40 / pb_ratio=1.30 / aq=1:1.00
Language : Russian
Default : Yes
Forced : No
Audio
ID : 2
Format : DTS
Format/Info : Digital Theater Systems
Codec ID : A_DTS
Duration : 2h 52mn
Bit rate mode : Constant
Bit rate : 1 510 Kbps
Channel(s) : 6 channels
Channel positions : Front: L C R, Side: L R, LFE
Sampling rate : 48.0 KHz
Bit depth : 16 bits
Compression mode : Lossy
Delay relative to video : 400ms
Stream size : 1.82 GiB (10%)
Title : Русский_Дубляж_DTS_5.1_1510_Kbps
Language : Russian
Default : No
Forced : No

Скриншоты


_________________
Показать сообщения:    

Текущее время: Сегодня 22:45

Часовой пояс: GMT



Вы не можете начинать темы
Вы не можете отвечать на сообщения
Вы не можете редактировать свои сообщения
Вы не можете удалять свои сообщения
Вы не можете голосовать в опросах
Вы не можете прикреплять файлы к сообщениям
Вы не можете скачивать файлы