Ивановский Торрент трекер
Яндекс.Погода
 

[Цитировать]
HUNTER

| Все релизы мультфильма || BDRip 720p, 4.20 GB |- P R E S E N T SОблачно... 2: Месть ГМО / Cloudy with a Chance of Meatballs 2- Страна: США
Жанр: мультфильм, комедия, приключения, семейный
Продолжительность: 01:34:50
Год выпуска: 2013
Перевод: Профессиональный (полное дублирование)
Субтитры: есть-Режиссёр: Коуди Камерон / Cody Cameron, Крис Пирн / Kris Pearn
Роли озвучивали: Билл Хейдер, Анна Фэрис, Джеймс Каан, Уилл Форте, Энди Сэмберг, Бенджамин Брэтт, Нил Патрик Харрис, Терри Крюс, Кристен Шаал, Коуди Камерон, Мелисса Штурм, Крис Пирн, Крэйг Келлман, Хамани Гриффин, Бриджит Хоффман, Эл Рокер...
Роли дублировали: Александр Пушной, Игорь Угольников и др.- | | -Описание: Все жители острова Поплавок покинули родной дом после событий предыдущего мультфильма. Главный герой Флинт Локвуд теперь работает в компании The Live Corp на своего кумира Честера. Но ему придется оставить свой пост когда он узнает, что его печально-известная машина все ещё работает и производит на свет опасных гибридов. Флинту предстоит ещё раз спасти мир и не дать коварной машине распространить громадную еду по всему миру...-Доп. информация: BDRip 720p сделан с Blu-Ray диска Cloudy with a Chance of Meatballs 2 2013 1080p CEE Blu-ray AVC DTS-HD MA 5.1-HDCLUB (Локализованный видеоряд).
В исходном видео была выполнена достройка изображения по вертикали на 1 пиксель (1920х801), и при ресайзе к разрешению в этом рипе - получена нулевая ошибка AR.
-Сэмпл/Sample (46.3 MB, 1 минута)-Качество: BDRip 720p
Формат: MKV
Видео: 1280x534 (2.40:1), 23,976 fps, ~4230 kbps avg, 0.258 bit/pixel
Аудио #1: Русский, AC3, 6 ch, 48 kHz, 640 kbps - Дубляж | BD CEE
Аудио #2: Украинский, AC3, 6 ch, 48 kHz, 640 kbps - Дубляж | BD CEE
Аудио #3: English, AC3, 6 ch, 48 kHz, 640 kbps - Original
Аудио #4: English, AC3, 2 ch, 48 kHz, 192 kbps - Commentary Directors Cody Cameron and Kris Pearn
Субтитры: Русские (форсированные), English (Full, Commentary)
Навигация по главам: есть (16 не именованных глав)

MediaInfo / x264Log

x264Log

raw [info]: 1280x534p 1:1 @ 24000/1001 fps (cfr)x264 [info]: using SAR=1/1x264 [info]: using cpu capabilities: MMX2 SSE2Fast SSSE3 SSE4.2 AVX XOP FMA4 FMA3 LZCNT BMI1x264 [info]: profile High, level 4.1x264 [info]: frame I:1220 Avg QP:14.99 size:126784 PSNR Mean Y:47.77 U:49.87 V:49.93 Avg:48.35 Global:47.97x264 [info]: frame P:34138 Avg QP:16.28 size: 42656 PSNR Mean Y:46.08 U:48.41 V:48.48 Avg:46.70 Global:46.21x264 [info]: frame B:101058 Avg QP:18.84 size: 13828 PSNR Mean Y:45.21 U:47.82 V:47.94 Avg:45.90 Global:45.42x264 [info]: consecutive B-frames: 4.1% 4.1% 8.5% 39.5% 12.4% 17.3% 3.6% 6.0% 2.4% 0.6% 0.3% 1.1% 0.2%x264 [info]: mb I I16..4: 2.2% 64.0% 33.8%x264 [info]: mb P I16..4: 0.7% 14.4% 4.0% P16..4: 25.2% 27.4% 14.7% 3.4% 0.5% skip: 9.7%x264 [info]: mb B I16..4: 0.2% 2.6% 0.7% B16..8: 24.0% 18.7% 4.5% direct: 5.9% skip:43.3% L0:39.8% L1:42.1% BI:18.1%x264 [info]: 8x8 transform intra:74.5% inter:48.9%x264 [info]: coded y,uvDC,uvAC intra: 90.4% 93.9% 85.1% inter: 22.6% 21.3% 10.1%x264 [info]: i16 v,h,dc,p: 15% 13% 3% 70%x264 [info]: i8 v,h,dc,ddl,ddr,vr,hd,vl,hu: 16% 14% 9% 7% 9% 10% 10% 11% 14%x264 [info]: i4 v,h,dc,ddl,ddr,vr,hd,vl,hu: 18% 12% 5% 8% 13% 12% 12% 10% 12%x264 [info]: i8c dc,h,v,p: 36% 29% 18% 17%x264 [info]: Weighted P-Frames: Y:3.6% UV:2.7%x264 [info]: ref P L0: 51.8% 10.0% 16.9% 6.0% 4.8% 3.5% 3.1% 1.8% 1.9% 0.3% 0.0%x264 [info]: ref B L0: 74.2% 11.6% 5.7% 3.0% 2.2% 1.8% 1.0% 0.4%x264 [info]: ref B L1: 92.6% 7.4%x264 [info]: SSIM Mean Y:0.9888846 (19.541db)x264 [info]: PSNR Mean Y:45.450 U:47.990 V:48.090 Avg:46.121 Global:45.626 kb/s:4229.84encoded 136416 frames, 9.04 fps, 4229.84 kb/s
GeneralUnique ID : 234480775420881357684487660204624170423 (0xB0675ACC16498E9B9BD3FA8D7907CDB7)Complete name : Cloudy.with.a.Chance.of.Meatballs.II.2013.Rus.BDRip.720p.dfcbit.mkvFormat : MatroskaFormat version : Version 2File size : 4.20 GiBDuration : 1h 34mnOverall bit rate : 6 345 KbpsEncoded date : UTC 2014-02-08 04:45:13Writing application : mkvmerge v4.0.0 ('The Stars were mine') built on Jun 6 2010 16:18:42Writing library : libebml v1.0.0 + libmatroska v1.0.0
VideoID : 1Format : AVCFormat/Info : Advanced Video CodecFormat profile : High@L4.1Format settings, CABAC : YesFormat settings, ReFrames : 9 framesCodec ID : V_MPEG4/ISO/AVCDuration : 1h 34mnBit rate : 4 230 KbpsWidth : 1 280 pixelsHeight : 534 pixelsDisplay aspect ratio : 2.40:1Frame rate mode : ConstantFrame rate : 23.976 fpsColor space : YUVChroma subsampling : 4:2:0Bit depth : 8 bitsScan type : ProgressiveBits/(Pixel*Frame) : 0.258Stream size : 2.80 GiB (65%)Title : NTSC, 1280x534 (2.40:1), BDRip 720p - tRuAVC & Multfilmy [DFCbit]Writing library : x264 core 142 r2389kMod 956c8d8Encoding settings : cabac=1 / ref=9 / deblock=1:-2:-1 / analyse=0x3:0x133 / me=umh / subme=11 / psy=1 / fade_compensate=0.00 / psy_rd=0.63:0.00 / mixed_ref=1 / me_range=32 / chroma_me=1 / trellis=2 / 8x8dct=1 / cqm=0 / deadzone=21,11 / fast_pskip=0 / chroma_qp_offset=-2 / threads=12 / lookahead_threads=3 / sliced_threads=0 / nr=0 / decimate=1 / interlaced=0 / bluray_compat=0 / constrained_intra=0 / fgo=0 / bframes=12 / b_pyramid=2 / b_adapt=2 / b_bias=0 / direct=1 / weightb=1 / open_gop=0 / weightp=2 / keyint=250 / keyint_min=23 / scenecut=40 / intra_refresh=0 / rc_lookahead=70 / rc=crf / mbtree=0 / crf=16.5690 / qcomp=0.81 / qpmin=0 / qpmax=69 / qpstep=4 / vbv_maxrate=50000 / vbv_bufsize=62500 / crf_max=0.0 / nal_hrd=none / filler=0 / ip_ratio=1.40 / pb_ratio=1.30 / aq=3:0.90Language : RussianDefault : YesForced : NoColor primaries : BT.709Transfer characteristics : BT.709Matrix coefficients : BT.709
Audio #1ID : 2Format : AC-3Format/Info : Audio Coding 3Mode extension : CM (complete main)Format settings, Endianness : BigCodec ID : A_AC3Duration : 1h 34mnBit rate mode : ConstantBit rate : 640 KbpsChannel(s) : 6 channelsChannel positions : Front: L C R, Side: L R, LFESampling rate : 48.0 KHzBit depth : 16 bitsCompression mode : LossyStream size : 434 MiB (10%)Title : AC3, 6 ch, 48 kHz, 640 kbps - Дубляж | BD CEELanguage : RussianDefault : YesForced : No
Audio #2ID : 3Format : AC-3Format/Info : Audio Coding 3Mode extension : CM (complete main)Format settings, Endianness : BigCodec ID : A_AC3Duration : 1h 34mnBit rate mode : ConstantBit rate : 640 KbpsChannel(s) : 6 channelsChannel positions : Front: L C R, Side: L R, LFESampling rate : 48.0 KHzBit depth : 16 bitsCompression mode : LossyStream size : 434 MiB (10%)Title : AC3, 6 ch, 48 kHz, 640 kbps - Дубляж | BD CEELanguage : UkrainianDefault : NoForced : No
Audio #3ID : 4Format : AC-3Format/Info : Audio Coding 3Mode extension : CM (complete main)Format settings, Endianness : BigCodec ID : A_AC3Duration : 1h 34mnBit rate mode : ConstantBit rate : 640 KbpsChannel(s) : 6 channelsChannel positions : Front: L C R, Side: L R, LFESampling rate : 48.0 KHzBit depth : 16 bitsCompression mode : LossyStream size : 434 MiB (10%)Title : AC3, 6 ch, 48 kHz, 640 kbps - OriginalLanguage : EnglishDefault : NoForced : No
Audio #4ID : 5Format : AC-3Format/Info : Audio Coding 3Mode extension : CM (complete main)Format settings, Endianness : BigCodec ID : A_AC3Duration : 1h 34mnBit rate mode : ConstantBit rate : 192 KbpsChannel(s) : 2 channelsChannel positions : Front: L RSampling rate : 48.0 KHzBit depth : 16 bitsCompression mode : LossyStream size : 130 MiB (3%)Title : AC3, 2 ch, 48 kHz, 192 kbps - Commentary Directors Cody Cameron and Kris PearnLanguage : EnglishDefault : NoForced : No
Text #1ID : 6Format : UTF-8Codec ID : S_TEXT/UTF8Codec ID/Info : UTF-8 Plain TextTitle : SRT, ForcedLanguage : RussianDefault : NoForced : No
Text #2ID : 7Format : UTF-8Codec ID : S_TEXT/UTF8Codec ID/Info : UTF-8 Plain TextTitle : SRT, FullLanguage : EnglishDefault : NoForced : No
Text #3ID : 8Format : UTF-8Codec ID : S_TEXT/UTF8Codec ID/Info : UTF-8 Plain TextTitle : SRT, CommentaryLanguage : EnglishDefault : NoForced : No
Menu00:00:00.000 : en:Chapter 100:07:12.015 : en:Chapter 200:12:51.521 : en:Chapter 300:18:50.421 : en:Chapter 400:25:58.390 : en:Chapter 500:31:57.082 : en:Chapter 600:36:53.253 : en:Chapter 700:39:28.908 : en:Chapter 800:41:07.840 : en:Chapter 900:45:28.017 : en:Chapter 1000:49:48.694 : en:Chapter 1100:54:41.403 : en:Chapter 1201:00:39.886 : en:Chapter 1301:06:47.921 : en:Chapter 1401:12:54.954 : en:Chapter 1501:21:25.589 : en:Chapter 16

Скриншоты

Скриншот с названием мультфильма (Локализация)
--BDRip 720p


Source Blu-Ray

Релиз от групп | and | -Данный релиз не будет воспроизводиться на бытовых плеерах не поддерживающих MKV и H.264 Обсуждение релизов в AVC формате || Свежие AVC рипы
Показать сообщения:    

Текущее время: 22-Окт 14:47

Часовой пояс: UTC - 1


Вы не можете начинать темы
Вы не можете отвечать на сообщения
Вы не можете редактировать свои сообщения
Вы не можете удалять свои сообщения
Вы не можете голосовать в опросах
Вы не можете прикреплять файлы к сообщениям
Вы не можете скачивать файлы

!ВНИМАНИЕ!
Сайт не предоставляет электронные версии произведений, а занимается лишь коллекционированием и каталогизацией ссылок, присылаемых и публикуемых на форуме нашими читателями. Если вы являетесь правообладателем какого-либо представленного материала и не желаете, чтобы ссылка на него находилась в нашем каталоге, свяжитесь с нами, и мы незамедлительно удалим ее. Файлы для обмена на трекере предоставлены пользователями сайта, и администрация не несет ответственности за их содержание. Просьба не заливать файлы, защищенные авторскими правами, а также файлы нелегального содержания!