Ивановский Торрент трекер
Яндекс.Погода
 

[Цитировать]
HUNTER

| Все релизы мультфильма || BDRip 1080p, 7.70 GB |- P R E S E N T SОблачно... 2: Месть ГМО / Cloudy with a Chance of Meatballs 2-
Страна: США
Жанр: мультфильм, комедия, приключения, семейный
Продолжительность: 01:34:50
Год выпуска: 2013
Перевод: Профессиональный (полное дублирование)
Субтитры: есть-Режиссёр: Коуди Камерон / Cody Cameron, Крис Пирн / Kris Pearn
Роли озвучивали: Билл Хейдер, Анна Фэрис, Джеймс Каан, Уилл Форте, Энди Сэмберг, Бенджамин Брэтт, Нил Патрик Харрис, Терри Крюс, Кристен Шаал, Коуди Камерон, Мелисса Штурм, Крис Пирн, Крэйг Келлман, Хамани Гриффин, Бриджит Хоффман, Эл Рокер...
Роли дублировали: Александр Пушной, Игорь Угольников и др.- | | -Описание: Все жители острова Поплавок покинули родной дом после событий предыдущего мультфильма. Главный герой Флинт Локвуд теперь работает в компании The Live Corp на своего кумира Честера. Но ему придется оставить свой пост когда он узнает, что его печально-известная машина все ещё работает и производит на свет опасных гибридов. Флинту предстоит ещё раз спасти мир и не дать коварной машине распространить громадную еду по всему миру...-Доп. информация: BDRip 1080p сделан с Blu-Ray диска Cloudy with a Chance of Meatballs 2 2013 1080p CEE Blu-ray AVC DTS-HD MA 5.1-HDCLUB (Локализованный видеоряд).-Сэмпл/Sample (85.1 MB, 1 минута)-Качество: BDRip 1080p
Формат: MKV
Видео: 1920x800 (2.40:1), 23,976 fps, ~8633 kbps avg, 0.234 bit/pixel
Аудио #1: Русский, AC3, 6 ch, 48 kHz, 640 kbps - Дубляж | BD CEE
Аудио #2: Украинский, AC3, 6 ch, 48 kHz, 640 kbps - Дубляж | BD CEE
Аудио #3: English, DTS / 5.1 / 48 kHz / 1509 kbps / 24 bits - Original
Аудио #4: English, AC3, 2 ch, 48 kHz, 192 kbps - Commentary Directors Cody Cameron and Kris Pearn
Субтитры: Русские (форсированные), English (Full, Commentary)
Навигация по главам: есть (16 не именованных глав)

MediaInfo / x264Log

x264Log

raw [info]: 1920x800p 1:1 @ 24000/1001 fps (cfr)x264 [info]: using SAR=1/1x264 [info]: using cpu capabilities: MMX2 SSE2Fast SSSE3 SSE4.2 AVX XOP FMA4 FMA3 LZCNT BMI1x264 [info]: profile High, level 4.1x264 [info]: frame I:1231 Avg QP:15.04 size:222109 PSNR Mean Y:48.51 U:50.19 V:50.23 Avg:48.97 Global:48.62x264 [info]: frame P:37236 Avg QP:16.29 size: 83050 PSNR Mean Y:46.59 U:48.67 V:48.70 Avg:47.15 Global:46.61x264 [info]: frame B:97949 Avg QP:18.39 size: 28325 PSNR Mean Y:45.60 U:48.01 V:48.07 Avg:46.23 Global:45.70x264 [info]: consecutive B-frames: 4.5% 5.7% 5.7% 58.9% 7.9% 10.2% 2.2% 4.3% 0.3% 0.2% 0.2%x264 [info]: mb I I16..4: 3.6% 63.9% 32.5%x264 [info]: mb P I16..4: 1.5% 16.6% 5.2% P16..4: 27.2% 28.3% 11.0% 2.8% 0.3% skip: 7.2%x264 [info]: mb B I16..4: 0.4% 3.0% 0.8% B16..8: 28.5% 18.1% 3.2% direct: 7.3% skip:38.8% L0:39.5% L1:44.4% BI:16.1%x264 [info]: 8x8 transform intra:71.0% inter:43.5%x264 [info]: coded y,uvDC,uvAC intra: 87.9% 90.9% 78.6% inter: 25.6% 23.5% 9.4%x264 [info]: i16 v,h,dc,p: 15% 13% 6% 66%x264 [info]: i8 v,h,dc,ddl,ddr,vr,hd,vl,hu: 13% 15% 11% 8% 9% 9% 10% 11% 14%x264 [info]: i4 v,h,dc,ddl,ddr,vr,hd,vl,hu: 18% 15% 9% 7% 11% 10% 11% 8% 11%x264 [info]: i8c dc,h,v,p: 37% 25% 19% 18%x264 [info]: Weighted P-Frames: Y:2.8% UV:2.1%x264 [info]: ref P L0: 59.3% 9.3% 21.9% 8.7% 0.8% 0.0%x264 [info]: ref B L0: 87.7% 10.0% 2.3%x264 [info]: ref B L1: 94.4% 5.6%x264 [info]: SSIM Mean Y:0.9878321 (19.148db)x264 [info]: PSNR Mean Y:45.893 U:48.214 V:48.264 Avg:46.505 Global:45.948 kb/s:8633.47encoded 136416 frames, 5.38 fps, 8633.47 kb/s
GeneralUnique ID : 202218880138697833899094794170819223425 (0x9821F08D6C835B319F66C2BA72411F81)Complete name : Cloudy.with.a.Chance.of.Meatballs.II.2013.Rus.BDRip.1080p.dfcbit.mkvFormat : MatroskaFormat version : Version 2File size : 7.70 GiBDuration : 1h 34mnOverall bit rate : 11.6 MbpsEncoded date : UTC 2014-02-07 16:59:19Writing application : mkvmerge v4.0.0 ('The Stars were mine') built on Jun 6 2010 16:18:42Writing library : libebml v1.0.0 + libmatroska v1.0.0
VideoID : 1Format : AVCFormat/Info : Advanced Video CodecFormat profile : High@L4.1Format settings, CABAC : YesFormat settings, ReFrames : 4 framesCodec ID : V_MPEG4/ISO/AVCDuration : 1h 34mnBit rate : 8 633 KbpsWidth : 1 920 pixelsHeight : 800 pixelsDisplay aspect ratio : 2.40:1Frame rate mode : ConstantFrame rate : 23.976 fpsColor space : YUVChroma subsampling : 4:2:0Bit depth : 8 bitsScan type : ProgressiveBits/(Pixel*Frame) : 0.234Stream size : 5.72 GiB (72%)Title : NTSC, 1920x800 (2.40:1), BDRip 1080p - tRuAVC & Multfilmy [DFCbit]Writing library : x264 core 142 r2389kMod 956c8d8Encoding settings : cabac=1 / ref=4 / deblock=1:-2:-1 / analyse=0x3:0x133 / me=umh / subme=11 / psy=1 / fade_compensate=0.00 / psy_rd=0.63:0.00 / mixed_ref=1 / me_range=32 / chroma_me=1 / trellis=2 / 8x8dct=1 / cqm=0 / deadzone=21,11 / fast_pskip=0 / chroma_qp_offset=-2 / threads=12 / lookahead_threads=3 / sliced_threads=0 / nr=0 / decimate=1 / interlaced=0 / bluray_compat=0 / constrained_intra=0 / fgo=0 / bframes=10 / b_pyramid=2 / b_adapt=2 / b_bias=0 / direct=1 / weightb=1 / open_gop=0 / weightp=2 / keyint=250 / keyint_min=23 / scenecut=40 / intra_refresh=0 / rc_lookahead=70 / rc=crf / mbtree=0 / crf=17.4690 / qcomp=0.81 / qpmin=0 / qpmax=69 / qpstep=4 / vbv_maxrate=50000 / vbv_bufsize=62500 / crf_max=0.0 / nal_hrd=none / filler=0 / ip_ratio=1.40 / pb_ratio=1.30 / aq=3:0.90Language : RussianDefault : YesForced : NoColor primaries : BT.709Transfer characteristics : BT.709Matrix coefficients : BT.709
Audio #1ID : 2Format : AC-3Format/Info : Audio Coding 3Mode extension : CM (complete main)Format settings, Endianness : BigCodec ID : A_AC3Duration : 1h 34mnBit rate mode : ConstantBit rate : 640 KbpsChannel(s) : 6 channelsChannel positions : Front: L C R, Side: L R, LFESampling rate : 48.0 KHzBit depth : 16 bitsCompression mode : LossyStream size : 434 MiB (6%)Title : AC3, 6 ch, 48 kHz, 640 kbps - Дубляж | BD CEELanguage : RussianDefault : YesForced : No
Audio #2ID : 3Format : AC-3Format/Info : Audio Coding 3Mode extension : CM (complete main)Format settings, Endianness : BigCodec ID : A_AC3Duration : 1h 34mnBit rate mode : ConstantBit rate : 640 KbpsChannel(s) : 6 channelsChannel positions : Front: L C R, Side: L R, LFESampling rate : 48.0 KHzBit depth : 16 bitsCompression mode : LossyStream size : 434 MiB (6%)Title : AC3, 6 ch, 48 kHz, 640 kbps - Дубляж | BD CEELanguage : UkrainianDefault : NoForced : No
Audio #3ID : 4Format : DTSFormat/Info : Digital Theater SystemsMode : 16Format settings, Endianness : BigCodec ID : A_DTSDuration : 1h 34mnBit rate mode : ConstantBit rate : 1 509 KbpsChannel(s) : 6 channelsChannel positions : Front: L C R, Side: L R, LFESampling rate : 48.0 KHzBit depth : 24 bitsCompression mode : LossyStream size : 1 024 MiB (13%)Title : DTS / 5.1 / 48 kHz / 1509 kbps / 24 bits - OriginalLanguage : EnglishDefault : NoForced : No
Audio #4ID : 5Format : AC-3Format/Info : Audio Coding 3Mode extension : CM (complete main)Format settings, Endianness : BigCodec ID : A_AC3Duration : 1h 34mnBit rate mode : ConstantBit rate : 192 KbpsChannel(s) : 2 channelsChannel positions : Front: L RSampling rate : 48.0 KHzBit depth : 16 bitsCompression mode : LossyStream size : 130 MiB (2%)Title : AC3, 2 ch, 48 kHz, 192 kbps - Commentary Directors Cody Cameron and Kris PearnLanguage : EnglishDefault : NoForced : No
Text #1ID : 6Format : UTF-8Codec ID : S_TEXT/UTF8Codec ID/Info : UTF-8 Plain TextTitle : SRT, ForcedLanguage : RussianDefault : NoForced : No
Text #2ID : 7Format : UTF-8Codec ID : S_TEXT/UTF8Codec ID/Info : UTF-8 Plain TextTitle : SRT, FullLanguage : EnglishDefault : NoForced : No
Text #3ID : 8Format : UTF-8Codec ID : S_TEXT/UTF8Codec ID/Info : UTF-8 Plain TextTitle : SRT, CommentaryLanguage : EnglishDefault : NoForced : No
Menu00:00:00.000 : en:Chapter 100:07:12.015 : en:Chapter 200:12:51.521 : en:Chapter 300:18:50.421 : en:Chapter 400:25:58.390 : en:Chapter 500:31:57.082 : en:Chapter 600:36:53.253 : en:Chapter 700:39:28.908 : en:Chapter 800:41:07.840 : en:Chapter 900:45:28.017 : en:Chapter 1000:49:48.694 : en:Chapter 1100:54:41.403 : en:Chapter 1201:00:39.886 : en:Chapter 1301:06:47.921 : en:Chapter 1401:12:54.954 : en:Chapter 1501:21:25.589 : en:Chapter 16

Скриншоты

Скриншот с названием мультфильма (Локализация)
--BDRip 1080p


Source Blu-Ray

Релиз от групп | and | -Данный релиз не будет воспроизводиться на бытовых плеерах не поддерживающих MKV и H.264Обсуждение релизов в AVC формате || Свежие AVC рипы
0 человек читают эту тему: 0 пользователей, 0 скрытых пользователей, 0 гостей

Показать сообщения:    

Текущее время: 24-Авг 00:14

Часовой пояс: UTC - 1


Вы не можете начинать темы
Вы не можете отвечать на сообщения
Вы не можете редактировать свои сообщения
Вы не можете удалять свои сообщения
Вы не можете голосовать в опросах
Вы не можете прикреплять файлы к сообщениям
Вы не можете скачивать файлы

!ВНИМАНИЕ!
Сайт не предоставляет электронные версии произведений, а занимается лишь коллекционированием и каталогизацией ссылок, присылаемых и публикуемых на форуме нашими читателями. Если вы являетесь правообладателем какого-либо представленного материала и не желаете, чтобы ссылка на него находилась в нашем каталоге, свяжитесь с нами, и мы незамедлительно удалим ее. Файлы для обмена на трекере предоставлены пользователями сайта, и администрация не несет ответственности за их содержание. Просьба не заливать файлы, защищенные авторскими правами, а также файлы нелегального содержания!