Ивановский Торрент трекер
Яндекс.Погода
 

[Цитировать]
HUNTER

Облачно, возможны осадки в виде фрикаделек / Cloudy with a Chance of Meatballs-Год выпуска: 2009
Страна: США
Жанр: семейный, мультфильм
Продолжительность: 01:29:53
Перевод: Профессиональный (полное дублирование)
Субтитры: Английские-В ролях: Билл Хадер, Анна Фарис, Джеймс Каан, Энди Самберг, Брюс Кэмпбелл, Мистер Ти, Бобби Дж. Томпсон, Бенжамин Брэтт, Нил Патрик Харрис, Эл Рокер, Лорен Грэм, Уилл Форте, Макс Ньювёрт, Peter Siragusa, Анджела Шелтон, Нил Флинн, Лиз Каковски, Изабелла Акрес, Лори Алан, Шэйн Баумель, Боб Берген
Режиссёр: Фил Лорд, Крис Миллер-Описание: Главный герой мультфильма — странный ученый Флинт Локвуд, который всегда хотел изобрести что-то такое, что сделает его родной городок счастливым. И вот, у него получилось! Еды теперь хватает всем, и она просто падает с неба, создавая новые пейзажи вокруг: можно любоваться закатом с живописных холмов из фруктового желе. Но иногда вкусные осадки в виде фрикаделек могут превратиться в настоящий торнадо из аппетитных, но уже опасных спагетти! Гениальному ученому и его друзьям предстоит исправить положение дел в сытом городке.-Качество: BDRip 1080p
Формат: MKV
Видео кодек: H264
Аудио кодек: AC-3
Видео: 1920x816, 6070 Kbps, 23.976 fps
Аудио #1: (Rus) AC-3, 6 ch, 448 kbps
Аудио #2: (Eng) AC-3, 6 ch, 448 kbps-

MediaInfo

General
Unique ID : 250372812455901287874484121300068948023 (0xBC5C0CB7A088BEA0AB20F3B2F4975837)
Complete name : Облачно, возможны осадки в виде фрикаделек.2009.BDRip.1080p.Rus.Eng.mkv
Format : Matroska
Format version : Version 2
File size : 4.37 GiB
Duration : 1h 29mn
Overall bit rate : 6 968 Kbps
Movie name : Облачно, возможны осадки в виде фрикаделек.2009
Encoded date : UTC 2012-02-26 15:19:56
Writing application : mkvmerge v5.3.0 ('I could have danced') built on Feb 9 2012 10:38:07
Writing library : libebml v1.2.3 + libmatroska v1.3.0
Video
ID : 1
Format : AVC
Format/Info : Advanced Video Codec
Format profile : High@L4.1
Format settings, CABAC : Yes
Format settings, ReFrames : 5 frames
Codec ID : V_MPEG4/ISO/AVC
Duration : 1h 29mn
Bit rate : 6 070 Kbps
Width : 1 920 pixels
Height : 816 pixels
Display aspect ratio : 2.35:1
Frame rate mode : Variable
Frame rate : 23.976 fps
Color space : YUV
Chroma subsampling : 4:2:0
Bit depth : 8 bits
Scan type : Progressive
Bits/(Pixel*Frame) : 0.162
Stream size : 3.73 GiB (85%)
Title : Rip by Boriy
Writing library : x264 core 116 r2044M 392e762
Encoding settings : cabac=1 / ref=5 / deblock=1:0:0 / analyse=0x3:0x133 / me=umh / subme=10 / psy=1 / psy_rd=1.00:0.10 / mixed_ref=1 / me_range=32 / chroma_me=1 / trellis=2 / 8x8dct=1 / cqm=0 / deadzone=21,11 / fast_pskip=0 / chroma_qp_offset=-3 / threads=12 / sliced_threads=0 / nr=0 / decimate=1 / interlaced=0 / bluray_compat=0 / constrained_intra=0 / bframes=5 / b_pyramid=2 / b_adapt=2 / b_bias=0 / direct=3 / weightb=1 / open_gop=0 / weightp=2 / keyint=240 / keyint_min=24 / scenecut=40 / intra_refresh=0 / rc_lookahead=60 / rc=2pass / mbtree=1 / bitrate=6070 / ratetol=1.0 / qcomp=0.60 / qpmin=0 / qpmax=69 / qpstep=4 / cplxblur=20.0 / qblur=0.5 / ip_ratio=1.40 / aq=1:1.00
Language : English
Default : Yes
Forced : No
Audio #1
ID : 2
Format : AC-3
Format/Info : Audio Coding 3
Mode extension : CM (complete main)
Codec ID : A_AC3
Duration : 1h 29mn
Bit rate mode : Constant
Bit rate : 448 Kbps
Channel(s) : 6 channels
Channel positions : Front: L C R, Side: L R, LFE
Sampling rate : 48.0 KHz
Bit depth : 16 bits
Compression mode : Lossy
Stream size : 288 MiB (6%)
Title : Дубляж
Language : Russian
Default : Yes
Forced : No
Audio #2
ID : 3
Format : AC-3
Format/Info : Audio Coding 3
Mode extension : CM (complete main)
Codec ID : A_AC3
Duration : 1h 29mn
Bit rate mode : Constant
Bit rate : 448 Kbps
Channel(s) : 6 channels
Channel positions : Front: L C R, Side: L R, LFE
Sampling rate : 48.0 KHz
Bit depth : 16 bits
Compression mode : Lossy
Stream size : 288 MiB (6%)
Title : Оригинал
Language : English
Default : No
Forced : No
Text
ID : 4
Format : UTF-8
Codec ID : S_TEXT/UTF8
Codec ID/Info : UTF-8 Plain Text
Language : English
Default : No
Forced : No
Menu
00:00:00.000 : en:
00:04:47.620 : en:
00:08:56.577 : en:
00:14:33.163 : en:
00:20:30.228 : en:
00:24:25.589 : en:
00:30:43.174 : en:
00:36:29.603 : en:
00:42:50.109 : en:
00:46:36.793 : en:
00:52:43.827 : en:
00:55:07.429 : en:
01:00:42.764 : en:
01:05:43.397 : en:
01:13:03.754 : en:
01:17:45.369 : en:
-

Скриншоты

Показать сообщения:    

Текущее время: 23-Сен 08:27

Часовой пояс: UTC - 1


Вы не можете начинать темы
Вы не можете отвечать на сообщения
Вы не можете редактировать свои сообщения
Вы не можете удалять свои сообщения
Вы не можете голосовать в опросах
Вы не можете прикреплять файлы к сообщениям
Вы не можете скачивать файлы

!ВНИМАНИЕ!
Сайт не предоставляет электронные версии произведений, а занимается лишь коллекционированием и каталогизацией ссылок, присылаемых и публикуемых на форуме нашими читателями. Если вы являетесь правообладателем какого-либо представленного материала и не желаете, чтобы ссылка на него находилась в нашем каталоге, свяжитесь с нами, и мы незамедлительно удалим ее. Файлы для обмена на трекере предоставлены пользователями сайта, и администрация не несет ответственности за их содержание. Просьба не заливать файлы, защищенные авторскими правами, а также файлы нелегального содержания!