Важное объявление!
У Нас Все раздачи мультитрекерные, при нуле пиров в релизах, можете смело вставать на закачку!
 
Автор Сообщение

HUNTER

Стаж:
4 года 11 месяцев
Сообщений:
66009

Репутация: 101

[+] [-]
Вне форума [Профиль] [ЛС]

Нюрнбергский процесс / Judgment at Nuremberg
-Страна: США
Жанр: историческая драма
Год выпуска: 1961
Продолжительность: 02:59:11-Перевод 1: Профессиональный (полное дублирование) Советский дубляж
Перевод 2: Профессиональный (многоголосый закадровый)
Перевод 3: Профессиональный (двухголосый закадровый) Культура-Cубтитры: русские, английские
Оригинальная аудиодорожка: английский-Режиссер: Стэнли Крамер / Stanley Kramer-В ролях: Спенсер Трэйси, Берт Ланкастер, Ричард Видмарк, Марлен Дитрих, Максимилиан Шелл, Джуди Гарленд, Монтгомери Клифт, Эд Биннс, Вернер Клемперер, Торбен Майер, Мартин Брандт, Уильям Шетнер, Кеннет МакКенна, Алан Бакстер, Вирджиния Кристин, Бен Райт, Джозеф Бернард, Джон Венграф, Карл Свенсон, Хауард Кейн, Отто Валдис, Ольга Фабиан, Пол Буш, Бернард Кейтс-Описание:
В Нюрнберге идет процесс над нацистскими преступниками. Слушаются дела юристов, служивших нацистскому режиму. Главный обвиняемый — известный немецкий судья Эрнст Янинг, добившийся уважения в Германии задолго до прихода к власти Гитлера. Дело ведет опытный американский судья Ден Хэйвуд, которому предстоит разобраться в этом сложном и неоднозначном деле, ведь на кону стоит не столько жизнь и честь человека, сколько послевоенная жизнь и честь всего немецкого народа.-Сэмпл: Скачать-Тип релиза: BDRip 720p
Контейнер: MKV-Видео: 1194x720 (1.657); 11900 Kbps; 23.976 fps; 0.551 bpp
Аудио 1: Russian; AC3; 48.0 KHz; 1ch; 128 Kbps Dub
Аудио 2: Russian; AC3; 48.0 KHz; 2ch; 192 Kbps MVO
Аудио 3: Russian; AC3; 48.0 KHz; 2ch; 192 Kbps DVO
Аудио 4: English; AC3; 48.0 KHz; 5,1 ch; 640 kbps

MediaInfo

Format : Matroska
Format version : Version 4 / Version 2
File size : 16.3 GiB
Duration : 3h 2mn
Overall bit rate : 12.8 Mbps
Movie name : Judgment at Nuremberg (1961) - HDBits Internal
Encoded date : UTC 2015-07-10 11:53:15
Writing application : mkvmerge v8.1.0 ('Psychedelic Postcard') 64bit
Writing library : libebml v1.3.1 + libmatroska v1.4.2
Attachements : poster.jpg
DURATION : 02:59:01.984000000
NUMBER_OF_FRAMES : 335687
NUMBER_OF_BYTES : 257807616
_STATISTICS_WRITING_APP : mkvmerge v8.1.0 ('Psychedelic Postcard') 64bit
_STATISTICS_WRITING_DATE_UTC : 2015-07-10 11:53:15
_STATISTICS_TAGS : BPS DURATION NUMBER_OF_FRAMES NUMBER_OF_BYTES
Video
ID : 1
Format : AVC
Format/Info : Advanced Video Codec
Format profile : High@L4.1
Format settings, CABAC : Yes
Format settings, ReFrames : 9 frames
Codec ID : V_MPEG4/ISO/AVC
Duration : 3h 2mn
Bit rate : 11.4 Mbps
Width : 1 194 pixels
Height : 720 pixels
Display aspect ratio : 1.658
Original display aspect ratio : 1.657
Frame rate mode : Constant
Frame rate : 23.976 fps
Color space : YUV
Chroma subsampling : 4:2:0
Bit depth : 8 bits
Scan type : Progressive
Bits/(Pixel*Frame) : 0.551
Stream size : 14.5 GiB (89%)
Title : HDBits Internal
Writing library : x264 core 142 r2431+42 c69a006 tMod [8-bit@4:2:0 X86_64]
Encoding settings : cabac=1 / ref=9 / deblock=1:-3:-3 / analyse=0x3:0x133 / me=umh / subme=11 / psy=1 / fade_compensate=0.00 / psy_rd=0.95:0.00 / mixed_ref=1 / me_range=32 / chroma_me=1 / trellis=2 / 8x8dct=1 / cqm=0 / deadzone=21,11 / fast_pskip=0 / chroma_qp_offset=-2 / threads=6 / lookahead_threads=1 / sliced_threads=0 / nr=0 / decimate=0 / interlaced=0 / bluray_compat=0 / constrained_intra=0 / fgo=0 / bframes=10 / b_pyramid=2 / b_adapt=2 / b_bias=0 / direct=3 / weightb=1 / open_gop=0 / weightp=2 / keyint=250 / keyint_min=23 / scenecut=40 / intra_refresh=0 / rc_lookahead=60 / rc=crf / mbtree=0 / crf=17.5000 / qcomp=0.65 / qpmin=0:0:0 / qpmax=69:69:69 / qpstep=4 / vbv_maxrate=62500 / vbv_bufsize=78125 / crf_max=0.0 / nal_hrd=none / filler=0 / ip_ratio=1.20 / pb_ratio=1.10 / aq=1:0.80 / aq-sensitivity=10.00 / aq-factor=1.00:1.00:1.00 / aq2=0 / aq3=0
Language : English
Default : Yes
Forced : No
Audio #1
ID : 2
Format : AC-3
Format/Info : Audio Coding 3
Mode extension : CM (complete main)
Format settings, Endianness : Big
Codec ID : A_AC3
Duration : 3h 2mn
Bit rate mode : Constant
Bit rate : 128 Kbps
Channel(s) : 1 channel
Channel positions : Front: C
Sampling rate : 48.0 KHz
Bit depth : 16 bits
Compression mode : Lossy
Stream size : 167 MiB (1%)
Title : Dub
Language : Russian
Default : Yes
Forced : No
Audio #2
ID : 3
Format : AC-3
Format/Info : Audio Coding 3
Mode extension : CM (complete main)
Format settings, Endianness : Big
Codec ID : A_AC3
Duration : 3h 2mn
Bit rate mode : Constant
Bit rate : 192 Kbps
Channel(s) : 2 channels
Channel positions : Front: L R
Sampling rate : 48.0 KHz
Bit depth : 16 bits
Compression mode : Lossy
Stream size : 251 MiB (2%)
Title : MVO
Language : Russian
Default : No
Forced : No
Audio #3
ID : 4
Format : AC-3
Format/Info : Audio Coding 3
Mode extension : CM (complete main)
Format settings, Endianness : Big
Codec ID : A_AC3
Duration : 3h 2mn
Bit rate mode : Constant
Bit rate : 192 Kbps
Channel(s) : 2 channels
Channel positions : Front: L R
Sampling rate : 48.0 KHz
Bit depth : 16 bits
Compression mode : Lossy
Stream size : 251 MiB (2%)
Title : DVO Культура
Language : Russian
Default : No
Forced : No
Audio #4
ID : 5
Format : AC-3
Format/Info : Audio Coding 3
Mode extension : CM (complete main)
Format settings, Endianness : Big
Codec ID : A_AC3
Duration : 3h 2mn
Bit rate mode : Constant
Bit rate : 640 Kbps
Channel(s) : 6 channels
Channel positions : Front: L C R, Side: L R, LFE
Sampling rate : 48.0 KHz
Bit depth : 16 bits
Compression mode : Lossy
Stream size : 837 MiB (5%)
Language : English
Default : No
Forced : No
Text #1
ID : 6
Format : UTF-8
Codec ID : S_TEXT/UTF8
Codec ID/Info : UTF-8 Plain Text
Language : Russian
Default : No
Forced : No
Text #2
ID : 7
Format : UTF-8
Codec ID : S_TEXT/UTF8
Codec ID/Info : UTF-8 Plain Text
Language : English
Default : No
Forced : No
Text #3
ID : 8
Format : UTF-8
Codec ID : S_TEXT/UTF8
Codec ID/Info : UTF-8 Plain Text
Title : SDH
Language : English
Default : No
Forced : No
Menu
00:00:00.000 : en:00:00:00.000
00:15:59.167 : en:00:15:59.167
00:31:58.917 : en:00:31:58.917
00:49:10.739 : en:00:49:10.739
01:07:53.152 : en:01:07:53.152
01:19:44.571 : en:01:19:44.571
01:32:16.448 : en:01:32:16.448
01:53:18.667 : en:01:53:18.667
02:08:00.923 : en:02:08:00.923
02:24:21.027 : en:02:24:21.027
02:28:59.472 : en:02:28:59.472
02:52:06.650 : en:02:52:06.650

Скриншоты


_________________
Показать сообщения:    

Текущее время: Сегодня 16:45

Часовой пояс: GMT



Вы не можете начинать темы
Вы не можете отвечать на сообщения
Вы не можете редактировать свои сообщения
Вы не можете удалять свои сообщения
Вы не можете голосовать в опросах
Вы не можете прикреплять файлы к сообщениям
Вы не можете скачивать файлы