Важное объявление!
У Нас Все раздачи мультитрекерные, при нуле пиров в релизах, можете смело вставать на закачку!
 
Автор Сообщение

HUNTER

Стаж:
4 года 7 месяцев
Сообщений:
61476

Репутация: 101

[+] [-]
Вне форума [Профиль] [ЛС]

Нью-Йорк: взгляд изнутри / New York: inside out
Год выпуска: 2009
Перевод: Профессиональный (одноголосый)
Русские субтитры: нет
Режиссер: Discovery Science
Выпуск 1. Транспортная система / Transportation
Описание: Без транспорта и системы поставки продовольствия жизнь в Нью-Йорке была бы невозможна. Мы отправимся туда, где никто не бывал - в подземку, на мосты и на контейнерные терминалы.
Качество: TVRip
Формат: AVI
Видео кодек: 720x576, 25 fps, XviD ~1260 kbps
Аудио 1: Русский MPEG Audio Layer 3 44100Hz stereo 128Kbps
Аудио 2: English MPEG Audio Layer 3 44100Hz stereo 128Kbps
Скриншоты


Информация
Format : AVI
Format/Info : Audio Video Interleave
File size : 483 MiB
Duration : 44mn 5s
Overall bit rate : 1 531 Kbps
Writing application : VirtualDubMod 1.5.10.2 (build 2540/release)
Writing library : VirtualDubMod build 2540/release
Video
ID : 0
Format : MPEG-4 Visual
Format profile : Advanced Simple@L5
Format settings, BVOP : Yes
Format settings, QPel : No
Format settings, GMC : No warppoints
Format settings, Matrix : Default (H.263)
Muxing mode : Packed bitstream
Codec ID : XVID
Codec ID/Hint : XviD
Duration : 44mn 5s
Bit rate : 1 260 Kbps
Width : 720 pixels
Height : 576 pixels
Display aspect ratio : 5:4
Frame rate : 25.000 fps
Standard : PAL
Resolution : 8 bits
Colorimetry : 4:2:0
Scan type : Progressive
Bits/(Pixel*Frame) : 0.122
Stream size : 398 MiB (82%)
Writing library : XviD 1.2.1 (UTC 2008-12-04)
Audio #1
ID : 1
Format : MPEG Audio
Format version : Version 1
Format profile : Layer 3
Codec ID : 55
Codec ID/Hint : MP3
Duration : 44mn 5s
Bit rate mode : Constant
Bit rate : 128 Kbps
Channel(s) : 2 channels
Sampling rate : 44.1 KHz
Stream size : 40.4 MiB (8%)
Alignment : Split accross interleaves
Interleave, duration : 40 ms (1.00 video frame)
Interleave, preload duration : 500 ms
Audio #2
ID : 2
Format : MPEG Audio
Format version : Version 1
Format profile : Layer 3
Codec ID : 55
Codec ID/Hint : MP3
Duration : 44mn 5s
Bit rate mode : Constant
Bit rate : 128 Kbps
Channel(s) : 2 channels
Sampling rate : 44.1 KHz
Stream size : 40.4 MiB (8%)
Alignment : Split accross interleaves
Interleave, duration : 40 ms (1.00 video frame)
Interleave, preload duration : 500 ms
Выпуск 2. Энергосистемы / Power
Описание: Рассказ о самой крупной и самой сложной энергосистеме в мире, которая за день потребляет больше энергии, чем вся Греция за год.
Качество: TVRip
Формат: AVI
Видео кодек: 720x576, 25 fps, XviD ~1086 kbps
Аудио 1: Русский MPEG Audio Layer 3 44100Hz stereo 128Kbps
Аудио 2: English MPEG Audio Layer 3 44100Hz stereo 128Kbps
Скриншоты


Информация
Общее
Format : AVI
Format/Info : Audio Video Interleave
FileSize/String : 428 Мегабайт
Duration/String : 44 м.
OverallBitRate/String : 1356 Кбит/сек
Encoded_Application : VirtualDubMod 1.5.10.2 (build 2540/release)
Encoded_Library/String : VirtualDubMod build 2540/release
Видео
ID/String : 0
Format : MPEG-4 Visual
Format_Profile : Advanced Simple@L5
Format_Settings_BVOP/String : Да
Format_Settings_QPel/String : Нет
Format_Settings_GMC/String : Без точки перехода
Format_Settings_Matrix/String : Default (H.263)
MuxingMode : Сжатый битовый поток
CodecID : XVID
CodecID/Hint : XviD
Duration/String : 44 м.
BitRate/String : 1086 Кбит/сек
Width/String : 720 пикс.
Height/String : 576 пикс.
DisplayAspectRatio/String : 5:4
FrameRate/String : 25,000 кадр/сек
Standard : PAL
Resolution/String : 8 бит
Colorimetry : 4:2:0
ScanType/String : Прогрессивная
Bits-(Pixel*Frame) : 0.105
StreamSize/String : 343 Мегабайт (80%)
Encoded_Library/String : XviD 1.2.1 (UTC 2008-12-04)
Аудио #1
ID/String : 1
Format : MPEG Audio
Format_Version : Version 1
Format_Profile : Layer 3
Format_Settings_Mode : Joint stereo
Format_Settings_ModeExtension : MS Stereo
CodecID : 55
CodecID/Hint : MP3
Duration/String : 44 м.
BitRate_Mode/String : Постоянный
BitRate/String : 128 Кбит/сек
Channel(s)/String : 2 канала(ов)
SamplingRate/String : 44,1 КГц
StreamSize/String : 40,3 Мегабайт (9%)
Alignment/String : Соединение по промежуткам
Interleave_Duration/String : 40 мс. (1,00 видеокадр)
Interleave_Preload/String : 522 ms
Аудио #2
ID/String : 2
Format : MPEG Audio
Format_Version : Version 1
Format_Profile : Layer 3
Format_Settings_Mode : Joint stereo
Format_Settings_ModeExtension : MS Stereo
CodecID : 55
CodecID/Hint : MP3
Duration/String : 44 м.
BitRate_Mode/String : Постоянный
BitRate/String : 128 Кбит/сек
Channel(s)/String : 2 канала(ов)
SamplingRate/String : 44,1 КГц
StreamSize/String : 40,3 Мегабайт (9%)
Alignment/String : Соединение по промежуткам
Interleave_Duration/String : 40 мс. (1,00 видеокадр)
Interleave_Preload/String : 522 ms

_________________
Показать сообщения:    

Текущее время: Сегодня 16:56

Часовой пояс: GMT



Вы не можете начинать темы
Вы не можете отвечать на сообщения
Вы не можете редактировать свои сообщения
Вы не можете удалять свои сообщения
Вы не можете голосовать в опросах
Вы не можете прикреплять файлы к сообщениям
Вы не можете скачивать файлы
Наши партнеры: интернет магазин Ивановского трикотажа textilla.ru