Важное объявление!
У Нас Все раздачи мультитрекерные, при нуле пиров в релизах, можете смело вставать на закачку!
 
Автор Сообщение

HUNTER

Стаж:
4 года 8 месяцев
Сообщений:
62116

Репутация: 101

[+] [-]
Вне форума [Профиль] [ЛС]

Ну что, приехали? / Are We There Yet?«To win over their mother, he's driving them across country. What could possibly go wrong?»
Страна: США, Канада
Жанр: комедия, приключения, семейный
Год выпуска: 2005
Продолжительность: 01:34:42
Перевод 1: Профессиональный (двухголосый закадровый) Спайр
Перевод 2: Профессиональный (двухголосый закадровый) Tycoon
Перевод 3: Авторский (одноголосый закадровый) Антон Карповский
Cубтитры: русские, английские
Оригинальная аудиодорожка: английский
-
Режиссер: Брайан Левант / Brian Levant
В ролях: Айс Кьюб, Ниа Лонг, Алейша Аллен, Филип Болден, Джей Мор, М. К. Гейни, Трэйси Морган, Генри Симмонс, Рэй Галлетти, Вив Ликок
-
Описание: Думал ли Ник Персонс, отправляясь в новогоднее путешествие из Вашингтона в Нью-Йорк с отпрысками своей подружки от первого брака, что желание угодить тем самым любимой и ее неуправляемым чадам обернется сущим кошмаром? Кевин и Линдси - страшные хулиганы и в совершенстве владеют искусством трепать нервы ухажерам своей мамочки. Они уже решили, что сделают все, чтобы их потенциальный отчим чувствовал себя как в аду каждую из тех 350 миль, которые им суждено проехать вместе. Счастливого вам пути, дядя Ник!!!
[img]https://rating.kinopoisk.ru/48028.gif[/img]
Тип релиза: BDRip 1080p
Контейнер: MKV
Видео: H.264 / NTSC 16:9 / 1920x1040 (1,85:1) / 13377 kbps / 23,976 fps / 0.279 bit/pixel / High@L4.1
Аудио 1: Russian / Dolby Digital Audio / 5.1 Ch / 48 kHz / 448 kbps / 16 bit / DVO / Спайр
Аудио 2: Russian / Dolby Digital Audio / 2.0 Ch / 48 kHz / 192 kbps / 16 bit / DVO / Tycoon
Аудио 3: Russian / Dolby Digital Audio / 2.0 Ch / 48 kHz / 192 kbps / 16 bit / AVO / Антон Карповский
Аудио 4: English / Dolby Digital Audio / 5.1 Ch / 48 kHz / 448 kbps / 16 bit / Original / DVD
Аудио 5: English / Dolby Digital Audio / 2.0 Ch / 48 kHz / 192 kbps / 16 bit / Original / Blu-Ray
Формат субтитров: softsub (SRT)
Навигация по главам: есть

MediaInfo

Код:
Общее
Уникальный идентификатор                 : 232515453518288461864511534268708507579 (0xAEECD8F23EB6E23AB8A5330FB06F4FBB)
Полное имя                               : N:\BDRip 1080p\Are We There Yet.2005.BDRip.1080p.mkv
Формат                                   : Matroska
Версия формата                           : Version 4 / Version 2
Размер файла                             : 9,82 Гбайт
Продолжительность                        : 1 ч. 34 м.
Общий поток                              : 14,8 Мбит/сек
Название фильма                          : Release for RuTracker © flaSI-I
Дата кодирования                         : UTC 2016-08-13 01:06:13
Программа кодирования                    : mkvmerge v9.3.1 ('Mask Machine') 64bit
Библиотека кодирования                   : libebml v1.3.4 + libmatroska v1.4.5
Видео
Идентификатор                            : 1
Формат                                   : AVC
Формат/Информация                        : Advanced Video Codec
Профиль формата                          : High@L4.1
Параметр CABAC формата                   : Да
Параметр ReFrames формата                : 4 кадра
Идентификатор кодека                     : V_MPEG4/ISO/AVC
Продолжительность                        : 1 ч. 34 м.
Битрейт                                  : 13,4 Мбит/сек
Ширина                                   : 1920 пикселей
Высота                                   : 1040 пикселей
Соотношение сторон                       : 1,85:1
Режим частоты кадров                     : Постоянный
Частота кадров                           : 23,976 (24000/1001) кадра/сек
Цветовое пространство                    : YUV
Субдискретизация насыщенности            : 4:2:0
Битовая глубина                          : 8 бит
Тип развёртки                            : Прогрессивная
Бит/(Пиксели*Кадры)                      : 0.279
Размер потока                            : 8,85 Гбайт (90%)
Библиотека кодирования                   : x264 core 146 r2538 121396c
Настройки программы                      : cabac=1 / ref=4 / deblock=1:-3:-3 / analyse=0x3:0x133 / me=tesa / subme=11 / psy=1 / psy_rd=1.04:0.00 / mixed_ref=1 / me_range=32 / chroma_me=1 / trellis=2 / 8x8dct=1 / cqm=0 / deadzone=21,11 / fast_pskip=0 / chroma_qp_offset=-2 / threads=60 / lookahead_threads=8 / sliced_threads=0 / nr=0 / decimate=0 / interlaced=0 / bluray_compat=0 / constrained_intra=0 / bframes=9 / b_pyramid=2 / b_adapt=2 / b_bias=0 / direct=3 / weightb=1 / open_gop=0 / weightp=2 / keyint=240 / keyint_min=23 / scenecut=40 / intra_refresh=0 / rc_lookahead=150 / rc=crf / mbtree=0 / crf=20.2 / qcomp=0.60 / qpmin=0 / qpmax=69 / qpstep=4 / vbv_maxrate=62500 / vbv_bufsize=78125 / crf_max=0.0 / nal_hrd=none / filler=0 / ip_ratio=1.40 / pb_ratio=1.30 / aq=1:0.70
Язык                                     : English
Default                                  : Да
Forced                                   : Нет
Аудио #1
Идентификатор                            : 2
Формат                                   : AC-3
Формат/Информация                        : Audio Coding 3
Расширение режима                        : CM (complete main)
Параметр Endianness формата              : Big
Идентификатор кодека                     : A_AC3
Продолжительность                        : 1 ч. 34 м.
Вид битрейта                             : Постоянный
Битрейт                                  : 448 Кбит/сек
Каналы                                   : 6 каналов
Расположение каналов                     : Front: L C R, Side: L R, LFE
Частота                                  : 48,0 КГц
Частота кадров                           : 31,250 кадров/сек (1536 spf)
Метод сжатия                             : С потерями
Размер потока                            : 303 Мбайт (3%)
Заголовок                                : DVO / Спайр
Язык                                     : Russian
Default                                  : Да
Forced                                   : Нет
Аудио #2
Идентификатор                            : 3
Формат                                   : AC-3
Формат/Информация                        : Audio Coding 3
Расширение режима                        : CM (complete main)
Параметр Endianness формата              : Big
Идентификатор кодека                     : A_AC3
Продолжительность                        : 1 ч. 34 м.
Вид битрейта                             : Постоянный
Битрейт                                  : 192 Кбит/сек
Каналы                                   : 2 канала
Расположение каналов                     : Front: L R
Частота                                  : 48,0 КГц
Частота кадров                           : 31,250 кадров/сек (1536 spf)
Метод сжатия                             : С потерями
Размер потока                            : 130 Мбайт (1%)
Заголовок                                : DVO / Tycoon
Язык                                     : Russian
Default                                  : Нет
Forced                                   : Нет
Аудио #3
Идентификатор                            : 4
Формат                                   : AC-3
Формат/Информация                        : Audio Coding 3
Расширение режима                        : CM (complete main)
Параметр Endianness формата              : Big
Идентификатор кодека                     : A_AC3
Продолжительность                        : 1 ч. 34 м.
Вид битрейта                             : Постоянный
Битрейт                                  : 192 Кбит/сек
Каналы                                   : 2 канала
Расположение каналов                     : Front: L R
Частота                                  : 48,0 КГц
Частота кадров                           : 31,250 кадров/сек (1536 spf)
Метод сжатия                             : С потерями
Размер потока                            : 129 Мбайт (1%)
Заголовок                                : AVO / Антон Карповский
Язык                                     : Russian
Default                                  : Нет
Forced                                   : Нет
Аудио #4
Идентификатор                            : 5
Формат                                   : AC-3
Формат/Информация                        : Audio Coding 3
Расширение режима                        : CM (complete main)
Параметр Endianness формата              : Big
Идентификатор кодека                     : A_AC3
Продолжительность                        : 1 ч. 34 м.
Вид битрейта                             : Постоянный
Битрейт                                  : 448 Кбит/сек
Каналы                                   : 6 каналов
Расположение каналов                     : Front: L C R, Side: L R, LFE
Частота                                  : 48,0 КГц
Частота кадров                           : 31,250 кадров/сек (1536 spf)
Метод сжатия                             : С потерями
Размер потока                            : 303 Мбайт (3%)
Заголовок                                : Original / DVD
Язык                                     : English
Default                                  : Нет
Forced                                   : Нет
Аудио #5
Идентификатор                            : 6
Формат                                   : AC-3
Формат/Информация                        : Audio Coding 3
Расширение режима                        : CM (complete main)
Параметр Endianness формата              : Big
Идентификатор кодека                     : A_AC3
Продолжительность                        : 1 ч. 34 м.
Вид битрейта                             : Постоянный
Битрейт                                  : 192 Кбит/сек
Каналы                                   : 2 канала
Расположение каналов                     : Front: L R
Частота                                  : 48,0 КГц
Частота кадров                           : 31,250 кадров/сек (1536 spf)
Метод сжатия                             : С потерями
Размер потока                            : 130 Мбайт (1%)
Заголовок                                : Original / Blu-Ray
Язык                                     : English
Default                                  : Нет
Forced                                   : Нет
Текст #1
Идентификатор                            : 7
Формат                                   : UTF-8
Идентификатор кодека                     : S_TEXT/UTF8
Идентификатор кодека/Информация          : UTF-8 Plain Text
Продолжительность                        : 1 ч. 28 м.
Битрейт                                  : 101 бит/сек
Count of elements                        : 1108
Размер потока                            : 65,9 Кбайт (0%)
Заголовок                                : RUSSiAN / DVD
Язык                                     : Russian
Default                                  : Нет
Forced                                   : Нет
Текст #2
Идентификатор                            : 8
Формат                                   : UTF-8
Идентификатор кодека                     : S_TEXT/UTF8
Идентификатор кодека/Информация          : UTF-8 Plain Text
Продолжительность                        : 1 ч. 28 м.
Битрейт                                  : 62 бит/сек
Count of elements                        : 1194
Размер потока                            : 40,6 Кбайт (0%)
Заголовок                                : Original
Язык                                     : English
Default                                  : Нет
Forced                                   : Нет
Меню
00:00:00.000                             : en:Chapter 1
00:20:33.441                             : en:Chapter 2
00:49:06.402                             : en:Chapter 3
01:16:52.983                             : en:Chapter 4

Скриншоты


_________________
Показать сообщения:    

Текущее время: Сегодня 21:16

Часовой пояс: GMT



Вы не можете начинать темы
Вы не можете отвечать на сообщения
Вы не можете редактировать свои сообщения
Вы не можете удалять свои сообщения
Вы не можете голосовать в опросах
Вы не можете прикреплять файлы к сообщениям
Вы не можете скачивать файлы
Наши партнеры: интернет магазин Ивановского трикотажа textilla.ru