Ивановский Торрент трекер
Яндекс.Погода
 

[Цитировать]
HUNTER

Ночь и город / Night and the City
Страна: Великобритания
Жанр: фильм-нуар
Год выпуска: 1950
Продолжительность: 01:35:51
Перевод: Профессиональный (двухголосый закадровый) DVD Classic
Cубтитры: английские
Оригинальная аудиодорожка: английский-Режиссер: Жюль Дассен / Jules Dassin
В ролях: Ричард Уидмарк, Джин Тирни, Гуги Уизерс, Хью Марлоу, Фрэнсис Л. Сулливэн, Херберт Лом, Майк Мазурки, Чарльз Фаррелл (I), Кен Ричмонд, Элиот Мэйкэм, Ада Рив, Бетти Марсден
Описание: По одноименному роману Джеральда Керша.
Гарри Фабиан — Лондонский шустрила с честолюбивыми планами, которые никогда не срабатывают. Однажды, когда он сталкивается с наиболее известным греко-римским борцом в мире, Грегориусом, в лондонской борцовской арене, которой управляет его сын Кристо, он выдумывает схему, которая, как он думает, положит начало к его финансовой независимости. Поскольку Фабиан пытается подставить каждого вокруг себя, чтобы заставить его схему работать, в итоге подставляется сам.
IMDb || КиноПоиск-Тип релиза: BDRip 720p
Контейнер: MKV
Видео: x264/AVC, 958x720 at 23.976 fps, 10000 kbps
Аудио#1: Russian: 48 kHz, AC3, 1.0 ch, 192 kbps
Аудио#2: English: 48 kHz, FLAC, 1.0 ch, 215 kbps
Аудио#3: English: 48 kHz, AC3, 1.0 ch, 192 kbps |комментарии киноведа Гленна Эриксона
Формат субтитров: softsub (SRT)
Сэмпл

MediaInfo

General
Unique ID : 194397249215166388910200875209834682666 (0x923F8C5FD048E9788857302A5458D92A)
Complete name : Night and the City.1950.Criterion.720p.rutracker.mkv
Format : Matroska
Format version : Version 2
File size : 7.10 GiB
Duration : 1h 35mn
Overall bit rate mode : Variable
Overall bit rate : 10.6 Mbps
Movie name : Release for RuTracker
Writing application : mkvmerge v5.0.1 ('Es ist Sommer') built on Nov 6 2011 16:23:40
Writing library : libebml v1.2.2 + libmatroska v1.3.0
Video
ID : 1
Format : AVC
Format/Info : Advanced Video Codec
Format profile : High@L4.1
Format settings, CABAC : Yes
Format settings, ReFrames : 12 frames
Codec ID : V_MPEG4/ISO/AVC
Duration : 1h 35mn
Nominal bit rate : 10 000 Kbps
Width : 958 pixels
Height : 720 pixels
Display aspect ratio : 4:3
Frame rate mode : Constant
Frame rate : 23.976 fps
Color space : YUV
Chroma subsampling : 4:2:0
Bit depth : 8 bits
Scan type : Progressive
Bits/(Pixel*Frame) : 0.605
Title : Night and the City.1950.Criterion.720p.rutracker
Writing library : x264 core 146 r2538 121396c
Encoding settings : cabac=1 / ref=12 / deblock=1:-3:-3 / analyse=0x3:0x113 / me=umh / subme=10 / psy=1 / psy_rd=1.00:0.00 / mixed_ref=1 / me_range=32 / chroma_me=1 / trellis=2 / 8x8dct=1 / cqm=0 / deadzone=21,11 / fast_pskip=1 / chroma_qp_offset=-2 / threads=12 / lookahead_threads=2 / sliced_threads=0 / nr=0 / decimate=0 / interlaced=0 / bluray_compat=0 / constrained_intra=0 / bframes=9 / b_pyramid=2 / b_adapt=2 / b_bias=0 / direct=2 / weightb=1 / open_gop=0 / weightp=2 / keyint=240 / keyint_min=23 / scenecut=40 / intra_refresh=0 / rc_lookahead=60 / rc=2pass / mbtree=0 / bitrate=10000 / ratetol=1.0 / qcomp=0.60 / qpmin=0 / qpmax=69 / qpstep=4 / cplxblur=20.0 / qblur=0.5 / vbv_maxrate=62500 / vbv_bufsize=78125 / nal_hrd=none / filler=0 / ip_ratio=1.40 / pb_ratio=1.30 / aq=1:0.85
Language : English
Default : Yes
Forced : No
Audio #1
ID : 2
Format : AC-3
Format/Info : Audio Coding 3
Mode extension : CM (complete main)
Format settings, Endianness : Big
Codec ID : A_AC3
Duration : 1h 35mn
Bit rate mode : Constant
Bit rate : 192 Kbps
Channel(s) : 1 channel
Channel positions : Front: C
Sampling rate : 48.0 KHz
Bit depth : 16 bits
Compression mode : Lossy
Stream size : 132 MiB (2%)
Title : DVD Classic
Language : Russian
Default : Yes
Forced : No
Audio #2
ID : 3
Format : FLAC
Format/Info : Free Lossless Audio Codec
Codec ID : A_FLAC
Duration : 1h 35mn
Bit rate mode : Variable
Channel(s) : 1 channel
Sampling rate : 48.0 KHz
Bit depth : 16 bits
Writing library : libFLAC 20080709 (UTC 2008-07-09)
Language : English
Default : No
Forced : No
Audio #3
ID : 4
Format : AC-3
Format/Info : Audio Coding 3
Mode extension : CM (complete main)
Format settings, Endianness : Big
Codec ID : A_AC3
Duration : 1h 35mn
Bit rate mode : Constant
Bit rate : 192 Kbps
Channel(s) : 1 channel
Channel positions : Front: C
Sampling rate : 48.0 KHz
Bit depth : 16 bits
Compression mode : Lossy
Stream size : 132 MiB (2%)
Title : комментарии киноведа Гленна Эриксона
Language : English
Default : No
Forced : No
Text
ID : 5
Format : UTF-8
Codec ID : S_TEXT/UTF8
Codec ID/Info : UTF-8 Plain Text
Language : English
Default : No
Forced : No
Menu
00:00:00.000 : en:Logos/Opening credits
00:01:28.797 : en:Saint Mary
00:07:42.962 : en:Adam Dunn
00:10:30.630 : en:The Silver Fox
00:13:00.404 : en:The American bar
00:15:56.956 : en:Gregorius
00:19:57.487 : en:"Here's to champagne"
00:23:36.540 : en:Figler
00:25:58.348 : en:Helen's two hundred quid
00:31:38.438 : en:Mr.Chilk, Fergus Chilk
00:37:03.679 : en:Fabian Promotions
00:39:20.608 : en:Hermes Kristo
00:42:54.280 : en:Business, business, business
00:48:13.307 : en:The Strangler
00:50:59.973 : en:"I let my boy crush you"
00:53:24.993 : en:Nosseross's phone call
01:00:11.399 : en:The wrestling match
01:05:38.768 : en:"Papa"
01:09:17.528 : en:The word goes out
01:13:25.567 : en:"You'll be all right"
01:15:09.546 : en:The shot tower
01:21:05.068 : en:"Everything seems to be in order"
01:22:23.063 : en:Betrayals
01:26:21.050 : en:"Oh, Anna, the things I did"

Скриншоты

Показать сообщения:    

Текущее время: 24-Сен 02:09

Часовой пояс: UTC - 1


Вы не можете начинать темы
Вы не можете отвечать на сообщения
Вы не можете редактировать свои сообщения
Вы не можете удалять свои сообщения
Вы не можете голосовать в опросах
Вы не можете прикреплять файлы к сообщениям
Вы не можете скачивать файлы

!ВНИМАНИЕ!
Сайт не предоставляет электронные версии произведений, а занимается лишь коллекционированием и каталогизацией ссылок, присылаемых и публикуемых на форуме нашими читателями. Если вы являетесь правообладателем какого-либо представленного материала и не желаете, чтобы ссылка на него находилась в нашем каталоге, свяжитесь с нами, и мы незамедлительно удалим ее. Файлы для обмена на трекере предоставлены пользователями сайта, и администрация не несет ответственности за их содержание. Просьба не заливать файлы, защищенные авторскими правами, а также файлы нелегального содержания!