Ивановский Торрент трекер
Яндекс.Погода
 

[Цитировать]
HUNTER

Ночь змеи / Змеиное гнездо / La notte dei serpenti / Nest of Vipers
Страна: Италия
Жанр: вестерн
Год выпуска: 1969
Продолжительность: 01:41:12
Перевод: Одноголосый закадровый 7879
Cубтитры: французские
Оригинальная аудиодорожка: итальянский
Режиссер: Джулио Петрони / Giulio Petroni
В ролях: Люк Эскью, Луиджи Пистилли, Магда Конопка, Чело Алонсо, Джулермо Сполетини, Франко Бальдуччи, Джанкарло Бадесси, Лучано Касамоника, Моника Мигель
Описание: Группа жителей небольшого мексиканского посёлка решает убить сироту Мануэля и поделить между собой его наследство. Для совершения преступления они делегируют местного пьянчугу Люка, но в том просыпается совесть, и он встаёт на защиту Мануэля.
Доп. информация: Русская звуковая дорожка взята с этой раздачи http://rutracker.org/forum/viewtopic.php?t=3258643 автору большое спасибо.
При пересборе двд ДВД всю работу выполнил Нордер: BeSweet в связке с BeLight – распаковка звука в формат WAV
Sony Vegas – синхронизация и кодирование в AC3
PgcDemux - разделение компонентов диска на файлы
Muxman - мультиплексирование и авторинг DVD
DvdReMakePro - реавторинг DVD

Скрин завершения проекта

Бонусы: Трейлеры
Сэмпл: http://sendfile.su/1074382
Тип релиза: DVD9 (Custom)
Контейнер: DVD-Video
Видео: PAL 16:9 (720x576) VBR Auto Pan&Scan
Аудио: Russian (Dolby AC3, 192 Кбит/сек, 2 ch)
Аудио 2: Francais (Dolby AC3, 192 Кбит/сек, 2 ch)
Аудио 3: Italiano (Dolby AC3, 192 Кбит/сек, 2 ch)
Формат субтитров: softsub (SRT)

DVDInfo

Size: 7.46 Gb ( 7 818 132 KBytes ) - DVD-9
Enabled regions: 1, 2, 3, 4, 5, 6, 7, 8
VTS_01 :
Play Length: 00:00:08
Video: PAL 16:9 (720x576) VBR, Auto Pan&Scan
Audio:
Francais (Dolby AC3, 2 ch)
Italiano (Dolby AC3, 2 ch)
Subtitles:
Francais
VTS_02 :
Play Length: 00:00:08
Video: PAL 16:9 (720x576) VBR, Auto Pan&Scan
Audio:
Francais (Dolby AC3, 2 ch)
Italiano (Dolby AC3, 2 ch)
Subtitles:
Francais
VTS_03 :
Play Length: 00:00:08
Video: PAL 16:9 (720x576) VBR, Auto Pan&Scan
Audio:
Francais (Dolby AC3, 2 ch)
Italiano (Dolby AC3, 2 ch)
Subtitles:
Francais
VTS_04 :
Play Length: 00:00:08
Video: PAL 16:9 (720x576) VBR, Auto Pan&Scan
Audio:
Francais (Dolby AC3, 2 ch)
Italiano (Dolby AC3, 2 ch)
Subtitles:
Francais
VTS_05 :
Play Length: 00:00:08
Video: PAL 16:9 (720x576) VBR, Auto Pan&Scan
Audio:
Francais (Dolby AC3, 2 ch)
Italiano (Dolby AC3, 2 ch)
Subtitles:
Francais
VTS_06 :
Play Length: 00:00:08
Video: PAL 16:9 (720x576) VBR, Auto Pan&Scan
Audio:
Francais (Dolby AC3, 2 ch)
Italiano (Dolby AC3, 2 ch)
Subtitles:
Francais
VTS_07 :
Play Length: 01:41:12
Video: PAL 16:9 (720x576) VBR, Auto Pan&Scan
Audio:
Russian (Dolby AC3, 2 ch)
Francais (Dolby AC3, 2 ch)
Italiano (Dolby AC3, 2 ch)
Subtitles:
Francais
Francais
VTS_08 :
Play Length: 00:00:08
Video: PAL 16:9 (720x576) VBR, Auto Pan&Scan
Audio:
Francais (Dolby AC3, 2 ch)
Italiano (Dolby AC3, 2 ch)
Subtitles:
Francais
VTS_09 :
Play Length: 00:00:08
Video: PAL 16:9 (720x576) VBR, Auto Pan&Scan
Audio:
Francais (Dolby AC3, 2 ch)
Italiano (Dolby AC3, 2 ch)
Subtitles:
Francais
VTS_10 :
Play Length: 00:00:08
Video: PAL 16:9 (720x576) VBR, Auto Pan&Scan
Audio:
Francais (Dolby AC3, 2 ch)
Italiano (Dolby AC3, 2 ch)
Subtitles:
Francais
VTS_11 :
Play Length: 00:00:08
Video: PAL 16:9 (720x576) VBR, Auto Pan&Scan
Audio:
Francais (Dolby AC3, 2 ch)
Italiano (Dolby AC3, 2 ch)
Subtitles:
Francais
VTS_12 :
Play Length: 00:02:51
Video: PAL 16:9 (720x576) VBR, Auto Pan&Scan
Audio:
Francais (Dolby AC3, 2 ch)
VTS_13 :
Play Length: 00:03:08+00:03:18
Video: PAL 16:9 (720x576) VBR, Auto Pan&Scan
Audio:
Francais (Dolby AC3, 2 ch)
VTS_14 :
Play Length: 00:03:27
Video: PAL 16:9 (720x576) VBR, Auto Pan&Scan
Audio:
English (Dolby AC3, 2 ch)
Subtitles:
English
VTS_15 :
Play Length: 00:01:56
Video: PAL 16:9 (720x576) VBR, Auto Pan&Scan
Audio:
Francais (Dolby AC3, 2 ch)
Subtitles:
Francais
Menu Video:
PAL 16:9 (720x576) VBR
Auto Pan&Scan
Menu Audio:
Not specified (Dolby AC3, 1 ch)
Menu Subtitles:
Not specified
Menu Francais Language Unit :
Root Menu
Angle menu
Chapter (PTT) Menu

MediaInfo

Общее
Полное имя : I:\La notte dei serpenti_1969\VIDEO_TS\VTS_07_1.VOB
Формат : MPEG-PS
Размер файла : 1024 Мбайт
Продолжительность : 15 м.
Режим общего битрейта : Переменный
Общий поток : 9319 Кбит/сек
Библиотека кодирования : encoded by TMPGEnc (ver. 2.524.63.181)
Видео
Идентификатор : 224 (0xE0)
Формат : MPEG Video
Версия формата : Version 2
Профиль формата : Main@Main
Параметр BVOP формата : Нет
Параметр матрицы формата : По умолчанию
Продолжительность : 15 м.
Вид битрейта : Переменный
Битрейт : 8557 Кбит/сек
Ширина : 720 пикселей
Высота : 576 пикселей
Соотношение сторон : 4:3
Частота кадров : 25,000 кадров/сек
Стандарт вещания : PAL
Цветовое пространство : YUV
Субдискретизация насыщенности : 4:2:0
Битовая глубина : 8 бит
Метод сжатия : С потерями
Бит/(Пиксели*Кадры) : 0.825
Размер потока : 940 Мбайт (92%)
Библиотека кодирования : TMPGEnc / 2.524.63.181 2.524.63.181
Основные цвета : BT.601 PAL
Характеристики трансфера : BT.470 System B, BT.470 System G
Коэффициенты матрицы : BT.601
Аудио #1
Идентификатор : 189 (0xBD)-128 (0x80)
Формат : AC-3
Формат/Информация : Audio Coding 3
Расширение режима : CM (complete main)
Параметр Endianness формата : Big
Режим смешивания : DVD-Video
Продолжительность : 15 м.
Вид битрейта : Постоянный
Битрейт : 192 Кбит/сек
Каналы : 2 канала
Расположение каналов : Front: L R
Частота : 48,0 КГц
Битовая глубина : 16 бит
Метод сжатия : С потерями
Задержка видео : -128 мс.
Размер потока : 21,1 Мбайт (2%)
Аудио #2
Идентификатор : 189 (0xBD)-129 (0x81)
Формат : AC-3
Формат/Информация : Audio Coding 3
Расширение режима : CM (complete main)
Параметр Endianness формата : Big
Режим смешивания : DVD-Video
Продолжительность : 15 м.
Вид битрейта : Постоянный
Битрейт : 192 Кбит/сек
Каналы : 2 канала
Расположение каналов : Front: L R
Частота : 48,0 КГц
Битовая глубина : 16 бит
Метод сжатия : С потерями
Задержка видео : -128 мс.
Размер потока : 21,1 Мбайт (2%)
Аудио #3
Идентификатор : 189 (0xBD)-130 (0x82)
Формат : AC-3
Формат/Информация : Audio Coding 3
Расширение режима : CM (complete main)
Параметр Endianness формата : Big
Режим смешивания : DVD-Video
Продолжительность : 15 м.
Вид битрейта : Постоянный
Битрейт : 192 Кбит/сек
Каналы : 2 канала
Расположение каналов : Front: L R
Частота : 48,0 КГц
Битовая глубина : 16 бит
Метод сжатия : С потерями
Задержка видео : -128 мс.
Размер потока : 21,1 Мбайт (2%)
Меню

Постеры и обложка

Скриншоты меню

Показать сообщения:    

Текущее время: 19-Окт 00:53

Часовой пояс: UTC - 1


Вы не можете начинать темы
Вы не можете отвечать на сообщения
Вы не можете редактировать свои сообщения
Вы не можете удалять свои сообщения
Вы не можете голосовать в опросах
Вы не можете прикреплять файлы к сообщениям
Вы не можете скачивать файлы

!ВНИМАНИЕ!
Сайт не предоставляет электронные версии произведений, а занимается лишь коллекционированием и каталогизацией ссылок, присылаемых и публикуемых на форуме нашими читателями. Если вы являетесь правообладателем какого-либо представленного материала и не желаете, чтобы ссылка на него находилась в нашем каталоге, свяжитесь с нами, и мы незамедлительно удалим ее. Файлы для обмена на трекере предоставлены пользователями сайта, и администрация не несет ответственности за их содержание. Просьба не заливать файлы, защищенные авторскими правами, а также файлы нелегального содержания!