Ночь в Роксбери / A Night at the Roxbury (Джон Фортенберри / John Fortenberry, Эми Хекерлинг / Amy Heckerling) [1998, США, комедия, WEB-DL 1080p] 2x DVO + MVO + 2x AVO + Original Eng + Sub Rus, Eng :: Ивановский Торрент трекер
Важное объявление!
У Нас Все раздачи мультитрекерные, при нуле пиров в релизах, можете смело вставать на закачку!
Статистика раздачи
Размер:     |    Зарегистрирован:     |    Скачан:     |   
Нет
 
     
 
 
Автор Сообщение

HUNTER

Стаж:
4 года 11 месяцев
Сообщений:
66054

Репутация: 101

[+] [-]
Вне форума [Профиль] [ЛС]

Ночь в Роксбери / A Night at the Roxbury-
Страна: США
Студия: Paramount Pictures
Жанр: Комедия
Год выпуска: 1998
Продолжительность: 01:21:56
Перевод 1: Профессиональный (двухголосый закадровый) SDI Media
Перевод 2: Профессиональный (двухголосый закадровый) R9
Перевод 3: Профессиональный (многоголосый закадровый) СТС
Перевод 4: Авторский (одноголосый закадровый) Ю. Живов
Перевод 5: Авторский (одноголосый закадровый) А. Алексеев
Cубтитры: Русские, Английские
Оригинальная аудиодорожка: английский
Режиссер: Джон Фортенберри / John Fortenberry, Эми Хекерлинг / Amy Heckerling
В ролях: Уилл Феррелл, Крис Кэттэн, Рэкуэл Гарднер, Вивека Полин, Полетт Брэкстон, Майкл М. Хортон, Ричард Франчезе, Дженнифер Кулидж, Майкл Кларк Дункан, Ричард Греко.
Описание: Они носят неотразимые костюмы и золотые цепи. У них модные прически и стильные бакенбарды. Их среда обитания - ночные клубы. Стимул их жизни - красивые женщины. Их самая заветная мечта - попасть в престижный и недоступный клуб `Роксбери`... Главные роли вэтой уморительной комедии исполняют Уилл Феррелл и Крис Кэттан - молодые и невероятно популярные американские комики. В этой картине они играют братьев Бутаби - не самых сообразительных и обаятельных, но энергичных и жизнерадостных обитателей Беверли - Хиллз. Именно вместе с ними Вам и предстоит отправиться в путешествие по ночному Лос - Анджелесу на поиски обворожительных девушек!-Рейтинг
[img]https://rating.kinopoisk.ru/6831.gif[/img]-Сэмпл
Тип релиза: WEB-DL 1080p
Контейнер: MKV
Видео: 1920x1080 (16:9), 23.976 fps, x264, ~12600 kbps
Аудио 1: Russian: 48 kHz, AC3, 2/0 (L,R) ch, ~192 kbps | Двухголосый закадровый, SDI Media
Аудио 2: Russian: 48 kHz, AC3, 2/0 (L,R) ch, ~192 kbps | Двухголосый закадровый, R9
Аудио 3: Russian: 48 kHz, AC3, 2/0 (L,R) ch, ~192 kbps | Многоголосый закадровый, СТС
Аудио 4: Russian: 48 kHz, AC3, 3/2 (L,C,R,l,r) + LFE ch, ~384 kbps | Одноголосый закадровый, Ю. Живов
Аудио 5: Russian: 48 kHz, AC3, 3/2 (L,C,R,l,r) + LFE ch, ~384 kbps | Одноголосый закадровый, А. Алексеев
Аудио 6: English: 48 kHz, E-AC3, 3/2 (L,C,R,l,r) + LFE ch, ~640 kbps
Субтитры: Русские, Английские
Формат субтитров: softsub (SRT)

Дополнительно

За дорожки спасибо VoJIshebnik, Mr-Maximus, AlsKnight.

MediaInfo

Общее
Unique ID : 193438192770805240182481087234737624374 (0x9186D73DA7E9540A927533CD509AD536)
Complete name : E:\video_rutracker\A.Night.at.the.Roxbury.1998.1080p.WEB-DL.5xRus.Eng.x264.mkv
Format : Matroska
Format version : Version 2
File size : 8,54 Гбайт
Duration : 1 ч. 21 м.
Overall bit rate mode : Переменный
Overall bit rate : 14,9 Мбит/сек
Movie name : A.Night.at.the.Roxbury.1998 | RuTracker | igrok2012
Encoded date : UTC 2016-10-08 11:05:25
Writing application : mkvmerge v8.3.0 ('Over the Horizon') 64bit
Writing library : libebml v1.3.1 + libmatroska v1.4.2
Cover : Yes
Attachments : cover.jpg
Видео
ID : 1
Format : AVC
Format/Info : Advanced Video Codec
Format profile : High@L4
Format settings, CABAC : Да
Format settings, ReFrames : 4 кадра
Codec ID : V_MPEG4/ISO/AVC
Duration : 1 ч. 21 м.
Bit rate mode : Переменный
Bit rate : 12,6 Мбит/сек
Maximum bit rate : 15,0 Мбит/сек
Width : 1920 пикселей
Height : 1080 пикселей
Display aspect ratio : 16:9
Frame rate mode : Постоянный
Frame rate : 23,976 (24000/1001) кадра/сек
Color space : YUV
Chroma subsampling : 4:2:0
Bit depth : 8 бит
Scan type : Прогрессивная
Bits/(Pixel*Frame) : 0.254
Stream size : 7,23 Гбайт (85%)
Writing library : x264 core 148 r2623 d5b2374
Encoding settings : cabac=1 / ref=4 / deblock=1:-1:-1 / analyse=0x3:0x133 / me=umh / subme=9 / psy=1 / psy_rd=1.00:0.15 / mixed_ref=1 / me_range=24 / chroma_me=1 / trellis=2 / 8x8dct=1 / cqm=0 / deadzone=21,11 / fast_pskip=1 / chroma_qp_offset=-3 / threads=34 / lookahead_threads=5 / sliced_threads=0 / nr=150 / decimate=1 / interlaced=0 / bluray_compat=0 / constrained_intra=0 / bframes=8 / b_pyramid=2 / b_adapt=2 / b_bias=0 / direct=3 / weightb=1 / open_gop=0 / weightp=2 / keyint=120 / keyint_min=61 / scenecut=0 / intra_refresh=0 / rc_lookahead=120 / rc=crf / mbtree=1 / crf=18.0 / qcomp=0.60 / qpmin=0 / qpmax=69 / qpstep=4 / vbv_maxrate=15000 / vbv_bufsize=31250 / crf_max=0.0 / nal_hrd=vbr / filler=0 / ip_ratio=1.40 / aq=3:1.00
Default : Да
Forced : Нет
Color range : Limited
Color primaries : BT.709
Transfer characteristics : BT.709
Matrix coefficients : BT.709
Аудио #1
ID : 2
Format : AC-3
Format/Info : Audio Coding 3
Mode extension : CM (complete main)
Format settings, Endianness : Big
Codec ID : A_AC3
Duration : 1 ч. 21 м.
Bit rate mode : Постоянный
Bit rate : 192 Кбит/сек
Channel(s) : 2 канала
Channel positions : Front: L R
Sampling rate : 48,0 КГц
Frame rate : 31,250 кадров/сек (1536 spf)
Compression mode : С потерями
Stream size : 113 Мбайт (1%)
Title : Двухголосый закадровый, SDI Media
Language : Russian
Default : Да
Forced : Нет
Аудио #2
ID : 3
Format : AC-3
Format/Info : Audio Coding 3
Mode extension : CM (complete main)
Format settings, Endianness : Big
Codec ID : A_AC3
Duration : 1 ч. 21 м.
Bit rate mode : Постоянный
Bit rate : 192 Кбит/сек
Channel(s) : 2 канала
Channel positions : Front: L R
Sampling rate : 48,0 КГц
Frame rate : 31,250 кадров/сек (1536 spf)
Compression mode : С потерями
Stream size : 113 Мбайт (1%)
Title : Двухголосый закадровый, R9
Language : Russian
Default : Нет
Forced : Нет
Аудио #3
ID : 4
Format : AC-3
Format/Info : Audio Coding 3
Mode extension : CM (complete main)
Format settings, Endianness : Big
Codec ID : A_AC3
Duration : 1 ч. 21 м.
Bit rate mode : Постоянный
Bit rate : 192 Кбит/сек
Channel(s) : 2 канала
Channel positions : Front: L R
Sampling rate : 48,0 КГц
Frame rate : 31,250 кадров/сек (1536 spf)
Compression mode : С потерями
Stream size : 113 Мбайт (1%)
Title : Многоголосый закадровый, СТС
Language : Russian
Default : Нет
Forced : Нет
Аудио #4
ID : 5
Format : AC-3
Format/Info : Audio Coding 3
Mode extension : CM (complete main)
Format settings, Endianness : Big
Codec ID : A_AC3
Duration : 1 ч. 21 м.
Bit rate mode : Постоянный
Bit rate : 384 Кбит/сек
Channel(s) : 6 каналов
Channel positions : Front: L C R, Side: L R, LFE
Sampling rate : 48,0 КГц
Frame rate : 31,250 кадров/сек (1536 spf)
Compression mode : С потерями
Stream size : 225 Мбайт (3%)
Title : Одноголосый закадровый, Ю. Живов
Language : Russian
Default : Нет
Forced : Нет
Аудио #5
ID : 6
Format : AC-3
Format/Info : Audio Coding 3
Mode extension : CM (complete main)
Format settings, Endianness : Big
Codec ID : A_AC3
Duration : 1 ч. 21 м.
Bit rate mode : Постоянный
Bit rate : 384 Кбит/сек
Channel(s) : 6 каналов
Channel positions : Front: L C R, Side: L R, LFE
Sampling rate : 48,0 КГц
Frame rate : 31,250 кадров/сек (1536 spf)
Compression mode : С потерями
Stream size : 225 Мбайт (3%)
Title : Одноголосый закадровый, А. Алексеев
Language : Russian
Default : Нет
Forced : Нет
Аудио #6
ID : 7
Format : E-AC-3
Format/Info : Audio Coding 3
Format settings, Endianness : Big
Codec ID : A_EAC3
Duration : 1 ч. 21 м.
Bit rate mode : Постоянный
Bit rate : 640 Кбит/сек
Channel(s) : 6 каналов
Channel positions : Front: L C R, Side: L R, LFE
Sampling rate : 48,0 КГц
Frame rate : 187,500 кадров/сек (256 spf)
Compression mode : С потерями
Stream size : 375 Мбайт (4%)
Language : English
Default : Нет
Forced : Нет
Текст #1
ID : 8
Format : UTF-8
Codec ID : S_TEXT/UTF8
Codec ID/Info : UTF-8 Plain Text
Language : Russian
Default : Нет
Forced : Нет
Текст #2
ID : 9
Format : UTF-8
Codec ID : S_TEXT/UTF8
Codec ID/Info : UTF-8 Plain Text
Language : English
Default : Нет
Forced : Нет

Скриншоты


_________________
Показать сообщения:    

Текущее время: Сегодня 10:30

Часовой пояс: GMT



Вы не можете начинать темы
Вы не можете отвечать на сообщения
Вы не можете редактировать свои сообщения
Вы не можете удалять свои сообщения
Вы не можете голосовать в опросах
Вы не можете прикреплять файлы к сообщениям
Вы не можете скачивать файлы