Важное объявление!
У Нас Все раздачи мультитрекерные, при нуле пиров в релизах, можете смело вставать на закачку!
 
Автор Сообщение

HUNTER

Стаж:
4 года 7 месяцев
Сообщений:
61487

Репутация: 101

[+] [-]
Вне форума [Профиль] [ЛС]

Ночные стражи / Крылья«Отдел борьбы с нечистью ждет новую кровь»
Страна: Россия
Жанр: фэнтези, триллер, боевик
Год выпуска: 2016
Продолжительность: 01:35:27
-
Перевод: Не требуется
Cубтитры: нет
Оригинальная аудиодорожка: русский
-
Режиссер: Эмилис Веливис
В ролях: Иван Янковский, Любовь Аксенова, Леонид Ярмольник, Михаил Евланов, Сабина Ахмедова, Константин Адаев, Юрий Ваксман, Алексей Дмитриев, Денис Бузин, Евгений Косырев
-
Описание: Оборотни, упыри и ведьмы - существуют. Если вы до сих пор не сталкивались с ними, то это заслуга отдела по надзору за представителями альтернативной жизни.
Обычный курьер случайно становится свидетелем зачистки нечисти в одном из столичных отелей, после чего получает новую работу.
Сотрудники отдела «Н» не бессмертны, но даже вампирам они не по зубам.
[img]https://rating.kinopoisk.ru/861616.gif[/img]
>>> Собственная запись со спутника Eutelsat 36A/36B (36°E) | Кинопремьера HD (эфир 28.09.2016г.)
Тип релиза: HDTV 1080i
Контейнер: MKV
Видео: MPEG-4 AVC / PAL 16:9 / 1920x1080 (2,40:1) / 6559 kbps / 25,000 fps / 0.063 bit/pixel / High@L4
Аудио 1: Russian / Dolby Digital Audio / 2.0 Ch / 48 kHz / 384 kbps / 16 bit
Аудио 2: Russian / MPEG-2 Audio / 2.0 Ch / 48 kHz / 192 kbps / 16 bit

MediaInfo

Код:
Общее
Уникальный идентификатор                 : 223030209030760685646362213044819716934 (0xA7CA0E4966F66DBF9A17B998DDF5EB46)
Полное имя                               : N:\HDTV\Ночные стражи 2016 HDTV 1080i DD5.1 MPEG4\Ночные стражи.2016.HDTV.1080i.mkv
Формат                                   : Matroska
Версия формата                           : Version 4 / Version 2
Размер файла                             : 4,76 Гбайт
Продолжительность                        : 1 ч. 35 м.
Общий поток                              : 7143 Кбит/сек
Название фильма                          : Release for RuTracker © flaSI-I
Дата кодирования                         : UTC 2016-09-28 19:50:32
Программа кодирования                    : mkvmerge v9.4.2 ('So High') 64bit
Библиотека кодирования                   : libebml v1.3.4 + libmatroska v1.4.5
Видео
Идентификатор                            : 1
Формат                                   : AVC
Формат/Информация                        : Advanced Video Codec
Профиль формата                          : High@L4
Параметр CABAC формата                   : Да
Параметр ReFrames формата                : 4 кадра
Параметр GOP формата                     : M=4, N=28
Идентификатор кодека                     : V_MPEG4/ISO/AVC
Продолжительность                        : 1 ч. 35 м.
Битрейт                                  : 6559 Кбит/сек
Ширина                                   : 1920 пикселей
Высота                                   : 1080 пикселей
Соотношение сторон                       : 16:9
Режим частоты кадров                     : Переменный
Частота кадров                           : 50,000 кадров/сек
Частота кадров в оригинале               : 25,000 кадров/сек
Стандарт вещания                         : Component
Цветовое пространство                    : YUV
Субдискретизация насыщенности            : 4:2:0
Битовая глубина                          : 8 бит
Тип развёртки                            : Чересстрочная
Метод сохранения типа развёртки          : Раздельные поля
Порядок развёртки                        : Верхнее поле первое
Бит/(Пиксели*Кадры)                      : 0.063
Размер потока                            : 4,37 Гбайт (92%)
Язык                                     : Russian
Default                                  : Да
Forced                                   : Нет
Цветовой диапазон                        : Limited
Основные цвета                           : BT.709
Характеристики трансфера                 : BT.709
Коэффициенты матрицы                     : BT.709
Аудио #1
Идентификатор                            : 2
Формат                                   : AC-3
Формат/Информация                        : Audio Coding 3
Расширение режима                        : CM (complete main)
Параметр Endianness формата              : Big
Идентификатор кодека                     : A_AC3
Продолжительность                        : 1 ч. 35 м.
Вид битрейта                             : Постоянный
Битрейт                                  : 384 Кбит/сек
Каналы                                   : 2 канала
Расположение каналов                     : Front: L R
Частота                                  : 48,0 КГц
Частота кадров                           : 31,250 кадров/сек (1536 spf)
Метод сжатия                             : С потерями
Размер потока                            : 262 Мбайт (5%)
Заголовок                                : DD | 2.0
Язык                                     : Russian
Default                                  : Да
Forced                                   : Нет
Аудио #2
Идентификатор                            : 3
Формат                                   : MPEG Audio
Версия формата                           : Version 1
Профиль формата                          : Layer 2
Идентификатор кодека                     : A_MPEG/L2
Идентификатор кодека/Подсказка           : MP2
Продолжительность                        : 1 ч. 35 м.
Вид битрейта                             : Постоянный
Битрейт                                  : 192 Кбит/сек
Каналы                                   : 2 канала
Частота                                  : 48,0 КГц
Частота кадров                           : 41,667 кадра/сек (1152 spf)
Метод сжатия                             : С потерями
Размер потока                            : 131 Мбайт (3%)
Заголовок                                : MPEG-2 | 2.0
Язык                                     : Russian
Default                                  : Нет
Forced                                   : Нет

Скриншоты

-


_________________
Показать сообщения:    

Текущее время: Сегодня 11:26

Часовой пояс: GMT



Вы не можете начинать темы
Вы не можете отвечать на сообщения
Вы не можете редактировать свои сообщения
Вы не можете удалять свои сообщения
Вы не можете голосовать в опросах
Вы не можете прикреплять файлы к сообщениям
Вы не можете скачивать файлы
Наши партнеры: интернет магазин Ивановского трикотажа textilla.ru