Ночной перелет / Overnight (Валери Бреймэн / Valerie Breiman) [2012, Романтическая комедия, DVB] DVO (SDI Media) + Original Eng :: Ивановский Торрент трекер
Важное объявление!
У Нас Все раздачи мультитрекерные, при нуле пиров в релизах, можете смело вставать на закачку!
Статистика раздачи
Размер:     |    Зарегистрирован:     |    Скачан:     |   
Нет
 
     
 
 
Автор Сообщение

димитри37

Стаж:
4 года 3 месяца
Сообщений:
1236

Репутация: 127

[+] [-]
Вне форума [Профиль] [ЛС]

Ночной перелет / Overnight
Страна: США
Производство: Red Eye Production, Phoenix Book & Film, Fusion Film Group
Жанр: Романтическая комедия
Год выпуска: 2012
Продолжительность: 01:20:13
Перевод: Профессиональный (двухголосый закадровый) SDI Media
Cубтитры: нет
Оригинальная аудиодорожка: английский
Режиссер: Валери Бреймэн / Valerie Breiman
В ролях: Рэйчел Блэнчард, Джеймс Д'Арси, Гбенга Акиннагбе, Энтони ЛаПалья, Маз Джобрани, Муса Крэйш, Джош Братен, Кристина Чанг, Клаудия Кристиан, Том Ходжес
Описание: После разрыва со свои парнем в день святого Валентина Дженни отправляется из Лос-Анджелеса в Нью-Йорк ночным рейсом. В самолете с ней летят эксцентричные пассажиры, среди которых звезда хип-хопа, а также неучтивые бортпроводники и раздражительный пилот. Соседом Дженни оказывается молодой преподаватель, которому также не везет в любви, и вскоре их взаимное притяжение растет...

Качество видео: DVB
Формат видео: TS
Видео: AVC 704x576 (4:3) 25.00fps Bit rate 967Kbps Bits/(Pixel*Frame) 0.095
Аудио 1: МР2 48.0 KHz z 2ch 128Kbps rus
Аудио 2: МР2 48.0 KHz 2ch 112Kbps eng

MediaInfo

General
ID : A
Complete name : F:\torrent\Ночной перелет.ts
Format : MPEG-TS
File size : 730 MiB
Duration : 1h 20mn
Overall bit rate : 1 272 Kbps
Video
ID : 1405 (0x57D)
Menu ID : 405 (0x195)
Format : AVC
Format/Info : Advanced Video Codec
Format profile : Main@L3.0
Format settings, CABAC : Yes
Format settings, ReFrames : 3 frames
Format settings, GOP : M=4, N=28
Duration : 1h 20mn
Bit rate : 967 Kbps
Width : 704 pixels
Height : 576 pixels
Display aspect ratio : 4:3
Frame rate : 25.000 fps
Standard : Component
Color space : YUV
Chroma subsampling : 4:2:0
Bit depth : 8 bits
Scan type : Progressive
Bits/(Pixel*Frame) : 0.095
Stream size : 555 MiB (76%)
Color primaries : BT.470-6 System B, BT.470-6 System G, BT.601-6 625, BT.1358 625, BT.1700 625 PAL, BT.1700 625 SECAM
Transfer characteristics : BT.470-6 System B, BT.470-6 System G
Matrix coefficients : BT.470-6 System B, BT.470-6 System G, BT.601-6 625, BT.1358 625, BT.1700 625 PAL, BT.1700 625 SECAM, IEC 61966-2-4 601
Audio #1
ID : 2405 (0x965)
Menu ID : 405 (0x195)
Format : MPEG Audio
Format version : Version 1
Format profile : Layer 2
Duration : 1h 20mn
Bit rate mode : Constant
Bit rate : 128 Kbps
Channel(s) : 2 channels
Sampling rate : 48.0 KHz
Video delay : 14ms
Stream size : 73.4 MiB (10%)
Language : Russian
Audio #2
ID : 3405 (0xD4D)
Menu ID : 405 (0x195)
Format : MPEG Audio
Format version : Version 1
Format profile : Layer 2
Duration : 1h 20mn
Bit rate mode : Constant
Bit rate : 112 Kbps
Channel(s) : 2 channels
Sampling rate : 48.0 KHz
Video delay : 86ms
Stream size : 64.3 MiB (9%)
Language : English

Скриншот c названием фильма

Скриншоты

-
Показать сообщения:    

Текущее время: Сегодня 12:37

Часовой пояс: GMT



Вы не можете начинать темы
Вы не можете отвечать на сообщения
Вы не можете редактировать свои сообщения
Вы не можете удалять свои сообщения
Вы не можете голосовать в опросах
Вы не можете прикреплять файлы к сообщениям
Вы не можете скачивать файлы