Ивановский Торрент трекер
Яндекс.Погода
 

[Цитировать]
adeei

Новый Человек-паук: Высокое напряжение / The Amazing Spider-Man 2: Rise of Electro
--
  • Год выпуска: 2014
  • Страна: США
  • Жанр: фэнтези, боевик, приключения
  • Продолжительность: 02:21:40
  • Перевод: Профессиональный (дублированный) Чистый звук
  • Cубтитры: нет
    Оригинальная аудиодорожка: нет-
  • Режиссер: Марк Уэбб / Marc Webb-
  • В ролях: Эндрю Гарфилд, Эмма Стоун, Джейми Фокс, Дэйн ДеХаан, Колм Фиор, Фелисити Джонс, Пол Джаматти, Салли Филд, Эмбет Дэвидц, Кэмпбелл Скотт- Описание: Питер Паркер под маской Человека-паука по-прежнему спасает мир от злодеев и преступников, а свободное время проводит со своей возлюбленной Гвен, но школьная пора близится к концу, и впереди героев ждет взрослая жизнь. Питер помнит о том, что дал отцу Гвен слово навсегда уйти из жизни девушки, тем самым больше не подвергая ее опасности. Однако сдержать это обещание не так просто. Судьба готовит Питеру сюрпризы: на его пути появится новый противник — Электро, а также ему будет суждено вновь встретиться с давним приятелем Гарри Озборном и узнать много нового о прошлом своей семьи.-Сэмпл: http://sendfile.su/1005556-
  • Качество видео: WEB-DLRip
  • Формат видео: AVI AVI
  • Видео: MPEG4, XviD, 720x304 (2.35:1), 23.976 fps, 1 084 Kbps (0.207 bit/pixel)
  • Аудио: AC-3, 44.1 KHz, 2 ch, 384 Kbps, CBR

MediaInfo

Общее
Полное имя : K:\Новый человек паук 2(Чистый Звук).2014.D.WEB-DLRip.1400MBt.avi
Формат : AVI
Формат/Информация : Audio Video Interleave
Размер файла : 1,46 Гбайт
Продолжительность : 2 ч. 21 м.
Общий поток : 1477 Кбит/сек
Программа кодирования : VirtualDubMod 1.5.10.2 (build 2540/release)
Библиотека кодирования : VirtualDubMod build 2540/release
Видео
Идентификатор : 0
Формат : MPEG-4 Visual
Профиль формата : Advanced Simple@L5
Параметр BVOP формата : 2
Параметр QPel формата : Нет
Параметр GMC формата : Без точки перехода
Параметр матрицы формата : Default (MPEG)
Идентификатор кодека : XVID
Идентификатор кодека/Подсказка : XviD
Продолжительность : 2 ч. 21 м.
Битрейт : 1084 Кбит/сек
Ширина : 720 пикселей
Высота : 304 пикселя
Соотношение сторон : 2,35:1
Частота кадров : 23,976 кадра/сек
Цветовое пространство : YUV
Субдискретизация насыщенности : 4:2:0
Битовая глубина : 8 бит
Тип развёртки : Прогрессивная
Метод сжатия : С потерями
Бит/(Пиксели*Кадры) : 0.207
Размер потока : 1,07 Гбайт (73%)
Библиотека кодирования : XviD 1.2.1 (UTC 2008-12-04)
Аудио
Идентификатор : 1
Формат : AC-3
Формат/Информация : Audio Coding 3
Расширение режима : CM (complete main)
Параметр Endianness формата : Big
Идентификатор кодека : 2000
Продолжительность : 2 ч. 21 м.
Вид битрейта : Постоянный
Битрейт : 384 Кбит/сек
Каналы : 2 канала
Расположение каналов : Front: L R
Частота : 44,1 КГц
Битовая глубина : 16 бит
Метод сжатия : С потерями
Размер потока : 389 Мбайт (26%)
Выравнивание : Разделение по промежуткам
Продолжительность промежутка : 42 мс. (1,00 видеокадр)
Время предзагрузки промежутка : 500 мс.

Скриншоты

-Источник:
Показать сообщения:    

Текущее время: 20-Сен 10:17

Часовой пояс: UTC - 1


Вы не можете начинать темы
Вы не можете отвечать на сообщения
Вы не можете редактировать свои сообщения
Вы не можете удалять свои сообщения
Вы не можете голосовать в опросах
Вы не можете прикреплять файлы к сообщениям
Вы не можете скачивать файлы

!ВНИМАНИЕ!
Сайт не предоставляет электронные версии произведений, а занимается лишь коллекционированием и каталогизацией ссылок, присылаемых и публикуемых на форуме нашими читателями. Если вы являетесь правообладателем какого-либо представленного материала и не желаете, чтобы ссылка на него находилась в нашем каталоге, свяжитесь с нами, и мы незамедлительно удалим ее. Файлы для обмена на трекере предоставлены пользователями сайта, и администрация не несет ответственности за их содержание. Просьба не заливать файлы, защищенные авторскими правами, а также файлы нелегального содержания!