Важное объявление!
У Нас Все раздачи мультитрекерные, при нуле пиров в релизах, можете смело вставать на закачку!
 
Автор Сообщение

mihis

[Профиль] [ЛС]

Новый Дон / Bonanno: A Godfather's Story«Inside the heart and mind of the Mafia.»4 Серии
Год выпуска: 1999
Страна: Канада, США, Armeda Ltd., Daniel L. Paulson Productions, Les Productions La Fete Inc
Жанр: Криминальная драма, гангстерский
Продолжительность: 4 х ~ 01:27:00
Перевод: Профессиональный (двухголосый, закадровый)
Субтитры: Нет
Режиссер: Мишель Пулетт
В ролях: Мартин Ландау, Гвидо Грассо мл., Брюс Рамсей, Тони Нарди, Костас Мэндилор, Эдвард Джеймс Олмос, Вито ДеФилиппо, Доменико Фиоре, Захари Беннетт, Альдо Тирелли
Описание: Приехав в Америку без гроша в кармане молодой Джо Бонанно в жестокой борьбе с конкурентами, среди которых знаменитые гангстеры Джо Массериа и аль Капоне, совершает стремительный взлет к вершинам власти в «Коза Ностре». В 26 лет Джозеф Бонанно занимает место своего убитого дона — Сальваторе Маранзано и становится самым молодым «крестным отцом» в истории мафии…

Качество: DVDRip
Формат: AVI
Видео кодек: DivX
Аудио кодек: AC3
Видео: 640x480 (1.33:1), 25 fps, DivX 5 ~1603 kbps avg, 0.21 bit/pixel
Аудио: 48 kHz, AC3 Dolby Digital, 2/0 (L,R) ch, ~192 kbps

MediaInfo

Общее
Полное имя : D:\Video\Novyj Don\Novyj Don (seriya 1).avi
Формат : AVI
Формат/Информация : Audio Video Interleave
Размер файла : 1,09 Гбайт
Продолжительность : 1 ч. 26 м.
Общий поток : 1806 Кбит/сек
Программа кодирования : VirtualDubMod 1.5.10.2 (build 2542/release)
Библиотека кодирования : VirtualDubMod build 2542/release
Видео
Идентификатор : 0
Формат : MPEG-4 Visual
Параметр BVOP формата : 1
Параметр QPel формата : Нет
Параметр GMC формата : Без точки перехода
Параметр матрицы формата : Default (MPEG)
Режим смешивания : Сжатый битовый поток
Идентификатор кодека : DX50
Идентификатор кодека/Подсказка : DivX 5
Продолжительность : 1 ч. 26 м.
Битрейт : 1604 Кбит/сек
Ширина : 640 пикселей
Высота : 480 пикселей
Соотношение сторон : 4:3
Частота кадров : 25,000 кадров/сек
Цветовое пространство : YUV
Субдискретизация насыщенности : 4:2:0
Битовая глубина : 8 бит
Тип развёртки : Прогрессивная
Метод сжатия : С потерями
Бит/(Пиксели*Кадры) : 0.209
Размер потока : 995 Мбайт (89%)
Библиотека кодирования : DivX 5.2.1 Beta (UTC 2004-09-08)
Аудио
Идентификатор : 1
Формат : AC-3
Формат/Информация : Audio Coding 3
Расширение режима : CM (complete main)
Параметр Endianness формата : Big
Идентификатор кодека : 2000
Продолжительность : 1 ч. 26 м.
Вид битрейта : Постоянный
Битрейт : 192 Кбит/сек
Каналы : 2 канала
Расположение каналов : Front: L R
Частота : 48,0 КГц
Битовая глубина : 16 бит
Метод сжатия : С потерями
Размер потока : 119 Мбайт (11%)
Выравнивание : Разделение по промежуткам
Продолжительность промежутка : 40 мс. (1,00 видеокадр)
Время предзагрузки промежутка : 500 мс.
 
Показать сообщения:    

Текущее время: Сегодня 02:10

Часовой пояс: GMT



Вы не можете начинать темы
Вы не можете отвечать на сообщения
Вы не можете редактировать свои сообщения
Вы не можете удалять свои сообщения
Вы не можете голосовать в опросах
Вы не можете прикреплять файлы к сообщениям
Вы не можете скачивать файлы
Наши партнеры: интернет магазин Ивановского трикотажа textilla.ru