Ивановский Торрент трекер
Яндекс.Погода
 

[Цитировать]
HUNTER

Новогодняя неделя еды / 4 выпуска
Страна: Россия, ТК "Домашний"
Тематика: Кулинарное Шоу
Тип раздаваемого материала: Видеоурок
Продолжительность: ~ 00:48:48
Год выпуска: 2013
Язык: Русский
Перевод: Не требуется
Описание: В преддверии празднования Нового 2014 года на канале «Домашний» — спецпроект «Неделя еды». Как всегда за новогодний стол будут отвечать ведущие кулинарных программ: Константин Ивлев и Юрий Рожков («Спросите повара»); Марк Стаценко и Василий Емельяненко («Лавка вкуса»); Антон Аренс («Еда по правилам и без»); Вадим Калинич («Мужская работа»). У каждого из поваров – своя территория. Вася и Марк будут готовить на катке! Костя и Юра – со звездным гостем; Вадим Калинич – на фермерском рынке; Антон Аренс – в ресторане с поваром.
Релиз:
Tarjaa
Содержание:
Выпуск 1 (эфир от 12.23.2013):
Tема программы «Рождественский стол»
Ведущие программы «Лавка вкуса» и гостья Светлана Кубицкая приготовят кролика по-мальтийски и рождественского карпа. Вместе с фермером Вадим Калинич и его гость Максим Ливси раскроют секреты приготовления рождественского петуха: кстати, подавать птицу лучше с фруктами, например, с грушей. И какой же рождественский стол без салата? Салат с телячьим языком от шеф-поваров программы «Спросите повара» и в завершении английский рождественский пудинг от Антона Аренса.
Скриншоты:
Выпуск 2 (эфир от 12.24.2013):
Tема программы «Супы на 1 января»
«Три девицы под окном....» Лия, Алена и Аня - хозяйки Stay Hungry и ведущие программы «Лавка вкуса» приготовят суп с черносливом и острый цитрусовый суп с бобами. Вадим Калинич сварит армянский «Хаш». Ведущие программы «Спросите повара» приготовят луковый суп и Клэм чаудер — это традиционный американский суп с мидиями в главной роли. А испанский томатный суп с чесночным хлебом сварят под чутким руководством Антона Аренса.
Скриншоты:
Выпуск 3 (эфир от 12.25.2013):
Tема программы «Новогодние десерты мира»
Для того, чтобы приготовить десерты - шоколадное печенье и хворост - ведущие программы «Лавка вкуса» приглашают нас на каток. Вадим Калинич расскажет телезрителям рецепт немецкого новогоднего кекса Штоллен. Танцор Евгений Папунаишвили вместе с Юрием Рожковым и Костей Ивлевым приготовят традиционный Наполеон и французское шоколадное полено.
Скриншоты:
Выпуск 4 (эфир от 12.26.2013):
Tема программы «Главное блюдо новогоднего стола»
В гостях на катке у Василия и Марка актриса Анастасия Третьякова, и вместе они готовят цыплят с мандаринами и французский праздничный мясной пирог. Вадим Калинич приготовит фермерского гуся, а ведущие программы «Спросите повара» - окорок. Для тех, кто предпочитает рыбу, Антон Аренс предлагает приготовить семгу под икорным соусом.
Скриншоты:
MediaInfo:
General
Complete name :Novogodnjaja.nedelja.edy.2013.Tarjaa\Novogodnjaja.nedelja.edy.v.2(2012.12.24).2013.Xvid.SATRip_Tarjaa.avi
Format : AVI
Format/Info : Audio Video Interleave
File size : 646 MiB
Duration : 49mn 7s
Overall bit rate : 1 838 Kbps
Writing application : VirtualDubMod 1.5.10.3 | www.virtualdub-fr.org || (build 2550/release)
Writing library : VirtualDubMod build 2550/release
Video
ID : 0
Format : MPEG-4 Visual
Format profile : Advanced Simple@L5
Format settings, BVOP : 1
Format settings, QPel : No
Format settings, GMC : No warppoints
Format settings, Matrix : Default (H.263)
Codec ID : XVID
Codec ID/Hint : XviD
Duration : 49mn 7s
Bit rate : 1 700 Kbps
Width : 704 pixels
Height : 400 pixels
Display aspect ratio : 16:9
Frame rate : 25.000 fps
Color space : YUV
Chroma subsampling : 4:2:0
Bit depth : 8 bits
Scan type : Progressive
Compression mode : Lossy
Bits/(Pixel*Frame) : 0.241
Stream size : 597 MiB (93%)
Writing library : XviD 1.2.1 (UTC 2008-12-04)
Audio
ID : 1
Format : MPEG Audio
Format version : Version 1
Format profile : Layer 3
Codec ID : 55
Codec ID/Hint : MP3
Duration : 49mn 7s
Bit rate mode : Constant
Bit rate : 128 Kbps
Channel count : 2 channels
Sampling rate : 48.0 KHz
Compression mode : Lossy
Stream size : 45.0 MiB (7%)
Alignment : Aligned on interleaves
Interleave, duration : 40 ms (1.00 video frame)
Interleave, preload duration : 504 ms
Writing library : LAME3.98r
Encoding settings : -m s -V 4 -q 2 -lowpass 17 -b 128
Качество: SATRip
Формат: AVI
Видео кодек: XviD
Аудио кодек: MP3
Видео: Xvid 704x400 25fps Bit rate: ~ 1 700 Kbps
Аудио: MP3 48000Hz stereo 128kbps [Stream 01]
Показать сообщения:    

Текущее время: 21-Сен 11:32

Часовой пояс: UTC - 1


Вы не можете начинать темы
Вы не можете отвечать на сообщения
Вы не можете редактировать свои сообщения
Вы не можете удалять свои сообщения
Вы не можете голосовать в опросах
Вы не можете прикреплять файлы к сообщениям
Вы не можете скачивать файлы

!ВНИМАНИЕ!
Сайт не предоставляет электронные версии произведений, а занимается лишь коллекционированием и каталогизацией ссылок, присылаемых и публикуемых на форуме нашими читателями. Если вы являетесь правообладателем какого-либо представленного материала и не желаете, чтобы ссылка на него находилась в нашем каталоге, свяжитесь с нами, и мы незамедлительно удалим ее. Файлы для обмена на трекере предоставлены пользователями сайта, и администрация не несет ответственности за их содержание. Просьба не заливать файлы, защищенные авторскими правами, а также файлы нелегального содержания!