Ивановский Торрент трекер
Яндекс.Погода
 

[Цитировать]
HUNTER

Новогодняя жена- Год выпуска: 2012
Страна: Россия
Жанр: комедия
Продолжительность: 01:31:57
Перевод: Оригинал-Режиссер: Светлана Музыченко
В ролях:Сергей Перегудов, Карина Андоленко, Алена Яковлева, Анна Донченко, Александр Арсентьев, Антон Васильев, Алексей Гришин-Описание: В самый разгар вечеринки в клубе Даша и Максим встречают друг друга…и просыпаются в одной пастели…Решив, что их свела сама судьба, герои принимаются строить идеальные, «правильные» отношения и…подают заявление в ЗАГС, предварительно заключив пари: если в течение месяца им удастся не просто прожить вместе, но и сохранить чувство влюбленности, дело закончится свадьбой.Максим с Дашей изо всех сил пытаются стать настоящей парой, хотя жизнь постоянно проверяет их отношения на прочность. А тут и оставленные в прошлом «пассии» тоже внезапно воспылали чувствами к отринутым «половинкам».Героям предстоит пережить немало смешных, а порой драматичных ситуаций, прежде чем они поймут, есть ли действительно между ними то самое, ради чего все затевалось — любовь…-Рейтинг:-Качество: SATRip
Формат: AVI
Видео кодек: DivX 5
Аудио кодеk: MP3
Видео: 704x400 (1.76:1), 25 fps, XviD build 50 ~1984 kbps avg, 0.28 bit/pixel
Аудио: Аудио #1: 48 kHz, MPEG Layer 3, 2 ch, ~128.00 kbps avg

МедиаИнфо

Код: copyText_writeLink('this.parentNode.parentNode.nextSibling.nextSibling'); General
Complete name : Novogodnjaja.zhena.2012.avi
Format : AVI
Format/Info : Audio Video Interleave
Format profile : OpenDML
File size : 1.36 GiB
Duration : 1h 31mn
Overall bit rate : 2 119 Kbps
Video
ID : 0
Format : MPEG-4 Visual
Format profile : Simple@L3
Format settings, BVOP : No
Format settings, QPel : No
Format settings, GMC : No warppoints
Format settings, Matrix : Default (H.263)
Codec ID : DX50
Codec ID/Hint : DivX 5
Duration : 1h 31mn
Bit rate : 1 974 Kbps
Width : 704 pixels
Height : 400 pixels
Display aspect ratio : 16:9
Frame rate : 25.000 fps
Color space : YUV
Chroma subsampling : 4:2:0
Bit depth : 8 bits
Scan type : Progressive
Bits/(Pixel*Frame) : 0.280
Stream size : 1.27 GiB (93%)
Writing library : XviD 1.2.1 (UTC 2008-12-04)
Audio
ID : 1
Format : MPEG Audio
Format version : Version 1
Format profile : Layer 3
Mode : Joint stereo
Mode extension : MS Stereo
Codec ID : 55
Codec ID/Hint : MP3
Duration : 25mn 51s
Bit rate mode : Constant
Bit rate : 128 Kbps
Channel(s) : 2 channels
Sampling rate : 48.0 KHz
Stream size : 23.7 MiB (2%)
Alignment : Aligned on interleaves
Interleave, duration : 85 ms (2.13 video frames)
Writing library : LAME3.98.2
-
-- -
Показать сообщения:    

Текущее время: 19-Окт 10:07

Часовой пояс: UTC - 1


Вы не можете начинать темы
Вы не можете отвечать на сообщения
Вы не можете редактировать свои сообщения
Вы не можете удалять свои сообщения
Вы не можете голосовать в опросах
Вы не можете прикреплять файлы к сообщениям
Вы не можете скачивать файлы

!ВНИМАНИЕ!
Сайт не предоставляет электронные версии произведений, а занимается лишь коллекционированием и каталогизацией ссылок, присылаемых и публикуемых на форуме нашими читателями. Если вы являетесь правообладателем какого-либо представленного материала и не желаете, чтобы ссылка на него находилась в нашем каталоге, свяжитесь с нами, и мы незамедлительно удалим ее. Файлы для обмена на трекере предоставлены пользователями сайта, и администрация не несет ответственности за их содержание. Просьба не заливать файлы, защищенные авторскими правами, а также файлы нелегального содержания!