Ивановский Торрент трекер
Яндекс.Погода
 

[Цитировать]
HUNTER

Новогодний переполох-«Все только начинается...»- Год выпуска: 2012
Страна: Россия
Жанр: комедия
Продолжительность: 02:18:25
Перевод: Оригинал-Режиссер: Феликс Герчиков
Сценарий: Арутюн Гукасян, Нелли Высоцкая, Екатерина Латанова
Продюсер: Алексей Моисеев, Давид Дишдишян, Нелли Яралова
Оператор: Кирилл Сперанский
Композитор: Игорь Бабаев
Художник: Владимир Ярин, Владимир Дудкин
Монтаж: Константин Мазур-В ролях: Мария Порошина (Татьяна), Даниил Спиваковский (Андрей), Луиза-Габриэла Бровина (Варя), Сергей Чирков (Гарик), Галина Петрова (Зинаида Павловна), Евгений Воскресенский (Лев Алексеевич), Нонна Гришаева (Коваленко), Владимир Стержаков (директор фабрики), Татьяна Кравченко (администраторша), Павел Прилучный (Эрик)
-Описание: С появлением молодого обаятельного мошенника Гарика в тихом провинциальном городке начинается настоящий Новогодний переполох с участием семейства Шишкиных, их родственников и коллег, деда Мороза и Снегурочки… и даже настоящего страуса.-Рейтинг:-Качество: SATRip
Формат: AVI
Видео кодек: XviD
Аудио кодеk: MP3
Видео: 704x400 (16:9), 25.000 fps, XviD, 1 481 Kbps, 0.210bit/pixel
Аудио: Аудио #1: MP3, 128 Kbps, 48.0 KHz, 2 ch

МедиаИнфо

Код: copyText_writeLink('this.parentNode.parentNode.nextSibling.nextSibling'); General
Complete name : Novogodni.perepoloh.2012.SATRip.avi
Format : AVI
Format/Info : Audio Video Interleave
File size : 1.56 GiB
Duration : 2h 18mn
Overall bit rate : 1 616 Kbps
Writing application : VirtualDubMod 1.5.4.1 (build 2178/release)
Writing library : VirtualDubMod build 2178/release
Video
ID : 0
Format : MPEG-4 Visual
Format profile : Advanced Simple@L5
Format settings, BVOP : Yes
Format settings, QPel : No
Format settings, GMC : No warppoints
Format settings, Matrix : Custom
Codec ID : XVID
Codec ID/Hint : XviD
Duration : 2h 18mn
Bit rate : 1 481 Kbps
Width : 704 pixels
Height : 400 pixels
Display aspect ratio : 16:9
Frame rate : 25.000 fps
Color space : YUV
Chroma subsampling : 4:2:0
Bit depth : 8 bits
Scan type : Progressive
Bits/(Pixel*Frame) : 0.210
Stream size : 1.43 GiB (92%)
Writing library : XviD 64
Audio
ID : 1
Format : MPEG Audio
Format version : Version 1
Format profile : Layer 3
Mode : Joint stereo
Codec ID : 55
Codec ID/Hint : MP3
Duration : 2h 18mn
Bit rate mode : Constant
Bit rate : 128 Kbps
Channel(s) : 2 channels
Sampling rate : 48.0 KHz
Stream size : 127 MiB (8%)
Alignment : Aligned on interleaves
Interleave, duration : 80 ms (2.00 video frames)
Interleave, preload duration : 504 ms
Writing library : LAME3.97
Encoding settings : -m j -V 4 -q 2 -lowpass 17 -b 128
-
- -
Показать сообщения:    

Текущее время: 26-Сен 01:00

Часовой пояс: UTC - 1


Вы не можете начинать темы
Вы не можете отвечать на сообщения
Вы не можете редактировать свои сообщения
Вы не можете удалять свои сообщения
Вы не можете голосовать в опросах
Вы не можете прикреплять файлы к сообщениям
Вы не можете скачивать файлы

!ВНИМАНИЕ!
Сайт не предоставляет электронные версии произведений, а занимается лишь коллекционированием и каталогизацией ссылок, присылаемых и публикуемых на форуме нашими читателями. Если вы являетесь правообладателем какого-либо представленного материала и не желаете, чтобы ссылка на него находилась в нашем каталоге, свяжитесь с нами, и мы незамедлительно удалим ее. Файлы для обмена на трекере предоставлены пользователями сайта, и администрация не несет ответственности за их содержание. Просьба не заливать файлы, защищенные авторскими правами, а также файлы нелегального содержания!