Ивановский Торрент трекер
Яндекс.Погода
 

[Цитировать]
HUNTER

Новичок SEO-шник 2.0.-
  • Год выпуска: 2014
  • Страна: Россия
  • Тематика: Программирование, создание сайта
  • Тип материала: Видеокурс
  • Продолжительность: 06:48:21
  • Язык: Русский
  • Автор: Александр Новиков

    Видеокурс предназначен для начинающих оптимизаторов и веб-мастеров, и приоткроет для них завесу тайн SEO (Search Engine Optimization) оптимизации. Курс содержит сугубо практический материал и авторские наработки применяемые им по оптимизации, раскрутке и продвижению сайтов в поисковых системах и поможет Вам понять, что, как, и в какой последовательности надо делать для того, чтобы Ваш сайт стал более популярным, посещаемым и приносящим Вам неплохие деньги.
    Данный видекурс очень подробный, досконально "разжеваный" и в нём всё объясняется очень простым языком - без разных "заумностей". В видеокурсе содержатся только рабочие и проверенные методы и секретные фишки Александра, о которых умалчивают другие веб-мастера, они помогут Вам достичь положительных результатов в кратчайшие сроки. Также видеокурс «Новичок SEO-шник» будет очень полезен и для более продвинутых оптимизаторов и веб-мастеров.

    Содержание и бонусы

    Содержание видеокурса:
    • Введение: Что такое наука Seo?
    • Seo оптимизация страниц сайта.
    • Seo Оптимизация Картинок.
    • Seo Семантическое ядро сайта.
    • Подбор ключевых слов для сайта.
    • Внешние и внутренние ссылки на сайте, seo ссылки.
    • Пузомерки PR и ТИЦ для сайта.
    • Обзор инструментов вебмастеров для seo анализа сайтов.
    • Генерируем тысячи названий и описаний для регистрации сайта.
    • Принципы SEO раскрутки и продвижение сайта в поисковых системах.
    • Добавляем новый сайт в основные поисковые системы и каталоги.
    • Регистрация сайта на Досках объявлений.
    • Регистрация сайта в Каталогах.
    • Регистрация на Форумах и оставление сообщений.
    • Проставляем ссылку на сайт в тематических Блогах.
    • Проставляем ссылку на сайт в Гостевых книгах.
    • Регистрация в сервисе Tvitter, ведём свой микроблоггинг.
    • Регистрация своего сайта в закладках.
    • Регистрация раскрутка и продвижение сайта по профилям.
    • SEO Анализ и продвижение сайта на живом примере.
    • Как заработать деньги в twitter.
    • Как сделать редирект, html код простого перенаправления.
    • Как уменьшить вес картинки для сайта.
    • Продвижение сайта качественными ссылками без атрибута rel="nofollow".
    • Seo секреты создания новых сайтов с нуля.
    • Cоздание своей рассылки на сайте,с помощью Smartresponder.
    • Как вставить на сайт кнопки популярных социальных сервисов.
    • Как можно ускорить индексацию своего сайта с помощью стороннего софта?
    • 16 Секретов для быстрого поиска. Хаки для поисковиков.
    • Правильная регистрация домена и его проверка для нового сайта.
    • Новый поисковой алгоритм Google Panda.
    • Как создать карту для любого сайта: google sitemap.
    • Правильный подбор ключевых слов и их анализ.
    • Как сделать сниппет для сайта.
    • Как поднять ТИЦ сайта и зачем это нужно.
    • PageRank и ссылочный вес.
    • Как обойти фильтры Яндекса.
    • Подводим итог, делаем выводы.
    Бонусы:
    • Заработок на раскрученном сайте.
    • Тренинг от Азамата Ушанова "Быстрые халявные деньги в E-mail маркетинге".
    --
  • Качество: PCRec
  • Формат: AVI, MP4
  • Видео кодек: AVC
  • Аудио кодек: MP3
  • Видео: AVC, 1280x720, 800x600, ~752 Kbps, 25.000 fps
  • Аудио: MP3, 192 Kbps, 2 канала, 44,1 KHz
--

MI

Код: copyText_writeLink('this.parentNode.parentNode.nextSibling.nextSibling');
Формат : AVI
Формат/Информация : Audio Video Interleave
Размер файла : 15,1 Мбайт
Продолжительность : 2 м. 49 с.
Общий поток : 751 Кбит/сек
Программа кодирования : Lavf54.61.104
Видео
Идентификатор : 0
Формат : AVC
Формат/Информация : Advanced Video Codec
Профиль формата : High@L3.1
Параметр CABAC формата : Да
Параметр ReFrames формата : 4 кадра
Идентификатор кодека : H264
Продолжительность : 2 м. 48 с.
Битрейт : 546 Кбит/сек
Ширина : 800 пикселей
Высота : 600 пикселей
Соотношение сторон : 4:3
Режим частоты кадров : Переменный
Частота кадров : 25,000 кадров/сек
Цветовое пространство : YUV
Субдискретизация насыщенности : 4:2:0
Битовая глубина : 8 бит
Тип развёртки : Прогрессивная
Бит/(Пиксели*Кадры) : 0.046
Размер потока : 11,0 Мбайт (73%)
Библиотека кодирования : x264 core 129 r2245 bc13772
Настройки программы : cabac=1 / ref=3 / deblock=1:0:0 / analyse=0x3:0x113 / me=hex / subme=7 / psy=1 / psy_rd=1.00:0.00 / mixed_ref=1 / me_range=16 / chroma_me=1 / trellis=1 / 8x8dct=1 / cqm=0 / deadzone=21,11 / fast_pskip=1 / chroma_qp_offset=-2 / threads=3 / lookahead_threads=1 / sliced_threads=0 / nr=0 / decimate=1 / interlaced=0 / bluray_compat=0 / constrained_intra=0 / bframes=3 / b_pyramid=2 / b_adapt=1 / b_bias=0 / direct=1 / weightb=1 / open_gop=0 / weightp=2 / keyint=250 / keyint_min=25 / scenecut=40 / intra_refresh=0 / rc_lookahead=40 / rc=crf / mbtree=1 / crf=2.0 / qcomp=0.60 / qpmin=0 / qpmax=69 / qpstep=4 / ip_ratio=1.40 / aq=1:1.00
Аудио
Идентификатор : 1
Формат : MPEG Audio
Версия формата : Version 1
Профиль формата : Layer 3
Режим : Joint stereo
Расширение режима : MS Stereo
Идентификатор кодека : 55
Идентификатор кодека/Подсказка : MP3
Продолжительность : 2 м. 49 с.
Вид битрейта : Постоянный
Битрейт : 192 Кбит/сек
Каналы : 2 канала
Частота : 44,1 КГц
Метод сжатия : С потерями
Размер потока : 3,87 Мбайт (26%)
Выравнивание : Соединение по промежуткам
Продолжительность промежутка : 26 мс. (0,65 видеокадр)
Библиотека кодирования : LAME3.99.5
Код: copyText_writeLink('this.parentNode.parentNode.nextSibling.nextSibling');
Формат                                   : MPEG-4
Профиль формата                          : Base Media / Version 2
Идентификатор кодека                     : mp42
Размер файла                             : 27,9 Мбайт
Продолжительность                        : 1 м. 58 с.
Режим общего битрейта                    : Переменный
Общий поток                              : 1969 Кбит/сек
Дата кодирования                         : UTC 2011-10-27 08:12:42
Дата пометки                             : UTC 2011-10-27 08:12:42
gsst                                     : 0
gstd                                     : 118840
gssd                                     : B4A7D6E49HH1411546111314678
gshh                                     : r9---sn-n8v7sn7e.googlevideo.com
Видео
Идентификатор                            : 1
Формат                                   : AVC
Формат/Информация                        : Advanced Video Codec
Профиль формата                          : High@L3.1
Параметр CABAC формата                   : Да
Параметр ReFrames формата                : 1 кадр
Идентификатор кодека                     : avc1
Идентификатор кодека/Информация          : Advanced Video Coding
Продолжительность                        : 1 м. 58 с.
Битрейт                                  : 1818 Кбит/сек
Максимальный битрейт                     : 3926 Кбит/сек
Ширина                                   : 1280 пикселей
Высота                                   : 720 пикселей
Соотношение сторон                       : 16:9
Режим частоты кадров                     : Постоянный
Частота кадров                           : 25,000 кадров/сек
Цветовое пространство                    : YUV
Субдискретизация насыщенности            : 4:2:0
Битовая глубина                          : 8 бит
Тип развёртки                            : Прогрессивная
Бит/(Пиксели*Кадры)                      : 0.079
Размер потока                            : 25,8 Мбайт (92%)
Дата пометки                             : UTC 2011-10-27 08:12:42
Аудио
Идентификатор                            : 2
Формат                                   : AAC
Формат/Информация                        : Advanced Audio Codec
Профиль формата                          : LC
Идентификатор кодека                     : 40
Продолжительность                        : 1 м. 58 с.
Вид битрейта                             : Переменный
Битрейт                                  : 148 Кбит/сек
Максимальный битрейт                     : 215 Кбит/сек
Каналы                                   : 2 канала
Расположение каналов                     : Front: L R
Частота                                  : 44,1 КГц
Метод сжатия                             : С потерями
Размер потока                            : 2,10 Мбайт (8%)
Заголовок                                : IsoMedia File Produced by Google, 5-11-2011
Дата кодирования                         : UTC 2011-10-27 08:12:42
Дата пометки                             : UTC 2011-10-27 08:12:42

Скриншоты

Показать сообщения:    

Текущее время: 21-Сен 13:17

Часовой пояс: UTC - 1


Вы не можете начинать темы
Вы не можете отвечать на сообщения
Вы не можете редактировать свои сообщения
Вы не можете удалять свои сообщения
Вы не можете голосовать в опросах
Вы не можете прикреплять файлы к сообщениям
Вы не можете скачивать файлы

!ВНИМАНИЕ!
Сайт не предоставляет электронные версии произведений, а занимается лишь коллекционированием и каталогизацией ссылок, присылаемых и публикуемых на форуме нашими читателями. Если вы являетесь правообладателем какого-либо представленного материала и не желаете, чтобы ссылка на него находилась в нашем каталоге, свяжитесь с нами, и мы незамедлительно удалим ее. Файлы для обмена на трекере предоставлены пользователями сайта, и администрация не несет ответственности за их содержание. Просьба не заливать файлы, защищенные авторскими правами, а также файлы нелегального содержания!