Важное объявление!
У Нас Все раздачи мультитрекерные, при нуле пиров в релизах, можете смело вставать на закачку!
 
Автор Сообщение

димитри37

Стаж:
4 года
Сообщений:
1236

Репутация: 127

[+] [-]
Вне форума [Профиль] [ЛС]

Новая Земля
Год выпуска: 2008
Производство: Россия / Кинокомпания «Андреевский флаг»
Жанр: Фантастика, боевик
Продолжительность: 01:59:48
Перевод: Оригинал
Режиссер: Александр Мельник
В ролях: Константин Лавроненко, Андрей Феськов, Марат Башаров, Павел Сборщиков, Александр Самойленко, Сергей Колтаков, Евгений Титов, Владислав Абашин, Заза Чичинадзе, Виктор Жалсанов, Николай Стоцкий, Сергей Жигунов, Игорь Письменный, Максим Макаров, Рамис Ибрагимов, Дмитрий Шаракоис, Фаридунцо Рахмуталиев, Андрей Ермохин, Владимир Бадов, Томми Листер, Ингеборга Дапкунайте
О фильме:Во всем мире отменена смертная казнь. Тюрьмы переполнены. Всё больше средств требуется для содержания осужденных на пожизненное заключение. Международные организации принимают решение о проведении эксперимента. Россия предоставляет необитаемый остров на севере, где обустраивается небольшое поселение. Туда вывозится первая экспериментальная партия заключенных из России. Им предлагают начать новую жизнь, самим устроить свое общество. Однако поселенцы начинают жить по закону "Последний — мёртвый".
Бюджет: $12 000 000

Качество: BDRip-AVC

Формат: MKV
Видео: H.264, 940x408 (2.30:1); 23,976 fps; 3037 kbps; 0.330 bit/pixel
Аудио: 48 kHz, AC3 Dolby Digital, 3/2 (L,C,R,l,r) + LFE ch, 448.00 kbps

MI

Общее
Уникальный идентификатор : 215734778427276629009880578930333942200 (0xA24D01C9909261E3ABA2522710E381B8)
Полное имя : Novaja.Zemlja.2008.O.BDRip.x264.potroks.mkv
Формат : Matroska
Версия формата : Version 4 / Version 2
Размер файла : 2,92 Гбайт
Продолжительность : 1 ч. 59 м.
Общий поток : 3485 Кбит/сек
Название фильма : -=POTROKS=-
Дата кодирования : UTC 2013-07-01 17:03:55
Программа кодирования : mkvmerge v5.9.0 ('On The Loose') built on Dec 15 2012 16:39:58
Библиотека кодирования : libebml v1.3.0 + libmatroska v1.4.0
Видео
Идентификатор : 1
Формат : AVC
Формат/Информация : Advanced Video Codec
Профиль формата : High@L4.1
Параметр CABAC формата : Да
Параметр ReFrames формата : 12 кадров
Идентификатор кодека : V_MPEG4/ISO/AVC
Продолжительность : 1 ч. 59 м.
Битрейт : 3037 Кбит/сек
Ширина : 940 пикселей
Высота : 408 пикселей
Соотношение сторон : 2,35:1
Режим частоты кадров : Постоянный
Частота кадров : 23,976 кадра/сек
Цветовое пространство : YUV
Субдискретизация насыщенности : 4:2:0
Битовая глубина : 8 бит
Тип развёртки : Прогрессивная
Бит/(Пиксели*Кадры) : 0.330
Размер потока : 2,48 Гбайт (85%)
Заголовок : Новая Земля
Библиотека кодирования : x264 core 125 r2208 d9d2288
Настройки программы : cabac=1 / ref=12 / deblock=1:-2:-1 / analyse=0x3:0x133 / me=umh / subme=11 / psy=1 / psy_rd=1.06:0.00 / mixed_ref=1 / me_range=32 / chroma_me=1 / trellis=2 / 8x8dct=1 / cqm=0 / deadzone=21,11 / fast_pskip=0 / chroma_qp_offset=-2 / threads=9 / lookahead_threads=1 / sliced_threads=0 / nr=0 / decimate=1 / interlaced=0 / bluray_compat=0 / constrained_intra=0 / bframes=13 / b_pyramid=2 / b_adapt=2 / b_bias=0 / direct=3 / weightb=1 / open_gop=0 / weightp=2 / keyint=240 / keyint_min=23 / scenecut=40 / intra_refresh=0 / rc_lookahead=150 / rc=2pass / mbtree=1 / bitrate=3037 / ratetol=1.0 / qcomp=0.70 / qpmin=0 / qpmax=69 / qpstep=4 / cplxblur=20.0 / qblur=0.5 / vbv_maxrate=20000 / vbv_bufsize=25000 / nal_hrd=none / ip_ratio=1.35 / aq=1:0.80
Язык : Russian
Default : Да
Forced : Нет
Аудио
Идентификатор : 2
Формат : AC-3
Формат/Информация : Audio Coding 3
Расширение режима : CM (complete main)
Параметр Endianness формата : Big
Идентификатор кодека : A_AC3
Продолжительность : 1 ч. 59 м.
Вид битрейта : Постоянный
Битрейт : 448 Кбит/сек
Каналы : 6 каналов
Расположение каналов : Front: L C R, Side: L R, LFE
Частота : 48,0 КГц
Битовая глубина : 16 бит
Метод сжатия : С потерями
Размер потока : 384 Мбайт (13%)
Заголовок : Original | DD 5.1 @ 448 kbps
Язык : Russian
Default : Да
Forced : Да

log@x.264

x264 [info]: frame I:1412 Avg QP:17.52 size: 84135
x264 [info]: frame P:40046 Avg QP:19.60 size: 32821
x264 [info]: frame B:130885 Avg QP:22.95 size: 9891
x264 [info]: consecutive B-frames: 2.3% 3.6% 10.1% 28.9% 18.2% 25.9% 5.3% 1.7% 1.5% 0.8% 0.5% 0.4% 0.3% 0.3%
x264 [info]: mb I I16..4: 5.3% 64.8% 29.9%
x264 [info]: mb P I16..4: 0.7% 11.5% 2.5% P16..4: 28.3% 31.4% 17.7% 3.9% 0.7% skip: 3.3%
x264 [info]: mb B I16..4: 0.1% 1.8% 0.3% B16..8: 33.6% 21.4% 5.0% direct: 7.0% skip:30.7% L0:38.9% L1:40.5% BI:20.6%
x264 [info]: 8x8 transform intra:77.2% inter:58.3%
x264 [info]: direct mvs spatial:97.1% temporal:2.9%
x264 [info]: coded y,uvDC,uvAC intra: 90.9% 86.9% 64.0% inter: 34.3% 22.9% 6.2%
x264 [info]: i16 v,h,dc,p: 30% 24% 7% 39%
x264 [info]: i8 v,h,dc,ddl,ddr,vr,hd,vl,hu: 10% 8% 5% 10% 15% 12% 15% 11% 14%
x264 [info]: i4 v,h,dc,ddl,ddr,vr,hd,vl,hu: 12% 9% 5% 8% 15% 13% 15% 10% 13%
x264 [info]: i8c dc,h,v,p: 39% 24% 17% 19%
x264 [info]: Weighted P-Frames: Y:5.8% UV:1.8%
x264 [info]: ref P L0: 45.1% 14.1% 15.7% 6.1% 4.8% 3.4% 3.0% 1.8% 1.6% 1.4% 1.3% 1.3% 0.3% 0.0%
x264 [info]: ref B L0: 77.5% 9.9% 4.5% 2.3% 1.7% 1.3% 1.0% 0.7% 0.6% 0.4% 0.2%
x264 [info]: ref B L1: 93.3% 6.7%
x264 [info]: kb/s:3035.73
x264 [total]: encoded 172343 frames, 7.42 fps, 3035.73 kb/s
TIME
------------------------------
Общее время кодирования: 8 hour 43 min 19 sec
Файл получился на: 2602.56 mb
-
Показать сообщения:    

Текущее время: Сегодня 00:07

Часовой пояс: GMT



Вы не можете начинать темы
Вы не можете отвечать на сообщения
Вы не можете редактировать свои сообщения
Вы не можете удалять свои сообщения
Вы не можете голосовать в опросах
Вы не можете прикреплять файлы к сообщениям
Вы не можете скачивать файлы
Наши партнеры: интернет магазин Ивановского трикотажа textilla.ru