Важное объявление!
У Нас Все раздачи мультитрекерные, при нуле пиров в релизах, можете смело вставать на закачку!
 
Автор Сообщение

HUNTER

Стаж:
4 года 9 месяцев
Сообщений:
65057

Репутация: 101

[+] [-]
Вне форума [Профиль] [ЛС]

Ничего себе поездочка / Joy Ride
Страна: США
Студия: 20th Century Fox
Жанр: Триллер
Год выпуска: 2001
Продолжительность: 01:37:07
Перевод: Профессиональный (дублированный)
Перевод 2: Профессиональный (многоголосый закадровый)
Cубтитры: русские, английские
Оригинальная аудиодорожка: английский
Режиссер: Джон Дал / John Dahl
В ролях: Стив Зан, Пол Уокер, Лили Собески, Джессика Боуман, Стюарт Стоун, Бейзил Уоллес, Брайан Лекнер, Делл Йонт и др.
Описание: Темная, пустынная лента шоссе змеей протянулась по безлюдному ландшафту средней Америки. Эта дорога живет своей жизнью, по своим правилам и законам, и если ты осмелился совершить по ней путешествие, то не плохо бы эти законы выучить наизусть. Герои фильма попадают в жуткую переделку, когда Фулер уговаривает младшего брата Льюиса установить в машине старый радиопередатчик. Для него это лишь «клевая» антикварная диковинка, с помощью которой можно позволить себе небольшой розыгрыш. Теперь ребятам придется своей кровью расплачиваться за поступок, на который способен каждый из нас…
Тип релиза: BDRip 720p
Контейнер: MKV
Видео: MPEG-4 AVC, 4500 Кбит/с, 1280x544, 23.976 кадр/с
Аудио: Русский (AC3, 6 ch, 448 Кбит/с) / Дублированный
Аудио 2: Русский (AC3, 6 ch, 448 Кбит/с) / Профессиональный многоголосый
Аудио 3: Английский (AC3, 6 ch, 448 Кбит/с)

MediaInfo

General
Unique ID : 172030408782455211723234578405212734115 (0x816BD9FFF6730DCA8D6846F126FAC2A3)
Complete name : D:\Documents\Мои видеозаписи\Joy.Ride.2001.BDRip.(720p)-MediaClub.mkv
Format : Matroska
Format version : Version 4 / Version 2
File size : 3.96 GiB
Duration : 1h 37mn
Overall bit rate : 5 844 Kbps
Movie name : -=MediaClub-kaspr=-
Encoded date : UTC 2013-11-05 08:52:31
Writing application : mkvmerge v6.1.0 ('Old Devil') built on Mar 4 2013 09:10:42
Writing library : libebml v1.3.0 + libmatroska v1.4.0
Video
ID : 1
Format : AVC
Format/Info : Advanced Video Codec
Format profile : High@L4.1
Format settings, CABAC : Yes
Format settings, ReFrames : 9 frames
Codec ID : V_MPEG4/ISO/AVC
Duration : 1h 37mn
Bit rate : 4 500 Kbps
Width : 1 280 pixels
Height : 544 pixels
Display aspect ratio : 2.35:1
Frame rate mode : Constant
Frame rate : 23.976 fps
Color space : YUV
Chroma subsampling : 4:2:0
Bit depth : 8 bits
Scan type : Progressive
Bits/(Pixel*Frame) : 0.270
Stream size : 2.97 GiB (75%)
Title : -=MediaClub-kaspr=-
Writing library : x264 core 130 r2273 b3065e6
Encoding settings : cabac=1 / ref=9 / deblock=1:-3:-3 / analyse=0x3:0x133 / me=umh / subme=11 / psy=1 / psy_rd=1.00:0.20 / mixed_ref=1 / me_range=48 / chroma_me=1 / trellis=2 / 8x8dct=1 / cqm=0 / deadzone=21,11 / fast_pskip=0 / chroma_qp_offset=-3 / threads=12 / lookahead_threads=2 / sliced_threads=0 / nr=0 / decimate=0 / interlaced=0 / bluray_compat=0 / constrained_intra=0 / bframes=9 / b_pyramid=2 / b_adapt=2 / b_bias=0 / direct=3 / weightb=1 / open_gop=0 / weightp=2 / keyint=240 / keyint_min=23 / scenecut=40 / intra_refresh=0 / rc=2pass / mbtree=0 / bitrate=4500 / ratetol=1.0 / qcomp=0.60 / qpmin=0 / qpmax=69 / qpstep=4 / cplxblur=20.0 / qblur=0.5 / ip_ratio=1.40 / pb_ratio=1.30 / aq=1:1.00
Default : Yes
Forced : Yes
Audio #1
ID : 2
Format : AC-3
Format/Info : Audio Coding 3
Mode extension : CM (complete main)
Format settings, Endianness : Big
Codec ID : A_AC3
Duration : 1h 37mn
Bit rate mode : Constant
Bit rate : 448 Kbps
Channel count : 6 channels
Channel positions : Front: L C R, Side: L R, LFE
Sampling rate : 48.0 KHz
Bit depth : 16 bits
Compression mode : Lossy
Stream size : 311 MiB (8%)
Title : DUB
Language : Russian
Default : Yes
Forced : Yes
Audio #2
ID : 3
Format : AC-3
Format/Info : Audio Coding 3
Mode extension : CM (complete main)
Format settings, Endianness : Big
Codec ID : A_AC3
Duration : 1h 37mn
Bit rate mode : Constant
Bit rate : 448 Kbps
Channel count : 6 channels
Channel positions : Front: L C R, Side: L R, LFE
Sampling rate : 48.0 KHz
Bit depth : 16 bits
Compression mode : Lossy
Stream size : 311 MiB (8%)
Title : MVO
Language : Russian
Default : No
Forced : No
Audio #3
ID : 4
Format : AC-3
Format/Info : Audio Coding 3
Mode extension : CM (complete main)
Format settings, Endianness : Big
Codec ID : A_AC3
Duration : 1h 37mn
Bit rate mode : Constant
Bit rate : 448 Kbps
Channel count : 6 channels
Channel positions : Front: L C R, Side: L R, LFE
Sampling rate : 48.0 KHz
Bit depth : 16 bits
Compression mode : Lossy
Stream size : 311 MiB (8%)
Language : English
Default : No
Forced : No
Text #1
ID : 5
Format : UTF-8
Codec ID : S_TEXT/UTF8
Codec ID/Info : UTF-8 Plain Text
Language : Russian
Default : No
Forced : No
Text #2
ID : 6
Format : UTF-8
Codec ID : S_TEXT/UTF8
Codec ID/Info : UTF-8 Plain Text
Language : English
Default : No
Forced : No
Menu
00:00:00.000 : en:Chapter 01
00:01:53.113 : en:Chapter 03
00:03:49.187 : en:Chapter 05
00:06:03.404 : en:Chapter 07
00:10:04.812 : en:Chapter 09
00:11:40.116 : en:Chapter 11
00:15:52.826 : en:Chapter 13
00:17:21.707 : en:Chapter 15
00:21:27.911 : en:Chapter 17
00:25:58.515 : en:Chapter 19
00:31:03.611 : en:Chapter 21
00:36:08.374 : en:Chapter 23
00:39:21.984 : en:Chapter 25
00:42:22.206 : en:Chapter 27
00:48:36.371 : en:Chapter 29
00:50:40.829 : en:Chapter 31
00:54:37.190 : en:Chapter 33
00:58:30.381 : en:Chapter 35
01:00:51.731 : en:Chapter 37
01:02:46.345 : en:Chapter 39
01:04:39.500 : en:Chapter 41
01:08:00.451 : en:Chapter 43
01:12:18.042 : en:Chapter 45
01:15:57.678 : en:Chapter 47
01:18:10.060 : en:Chapter 49
01:24:02.829 : en:Chapter 51
01:25:54.107 : en:Chapter 53
01:29:02.587 : en:Chapter 55
01:31:40.620 : en:Chapter 57
01:33:05.288 : en:Chapter 59

Скриншоты





_________________
Показать сообщения:    

Текущее время: Сегодня 11:00

Часовой пояс: GMT



Вы не можете начинать темы
Вы не можете отвечать на сообщения
Вы не можете редактировать свои сообщения
Вы не можете удалять свои сообщения
Вы не можете голосовать в опросах
Вы не можете прикреплять файлы к сообщениям
Вы не можете скачивать файлы