Ивановский Торрент трекер
Яндекс.Погода
 

[Цитировать]
HUNTER

Никто не совершенен / Да кто ж из нас совершенен / Nessuno e perfetto / Ornella - Die Unwiderstehliche
Страна: Италия
Студия: Filmauro
Жанр: комедия, драма
Год выпуска: 1981
Продолжительность: 01:39:25
Перевод: Авторский (одноголосый закадровый) Мудров
Cубтитры: русские dimmm2v, немецкие.
Оригинальная аудиодорожка: итальянский
Режиссер: Паскуале Феста Кампаниле / Pasquale Festa Campanile
В ролях: Орнелла Мути, Ренато Поццетто, Феличе Андреази, Массимо Болди, Габриэле Тинти, Лина Волоньги, Франческо Висентин
Описание: Владелец небольшого винного завода, Гуэррино Кастильони (Ренато Поццетто), несколько лет назад похоронивший жену, практически утратил интерес к жизни. Во время одной из бессмысленных ночных поездок по городу он знакомится с очаровательной моделью Шанталь (Орнелла Мути). Молодые люди влюбляются друг в друга и практически сразу женятся. Шанталь помогает Гуэррино вернуть вкус к жизни и начать все сначала, но семейная идиллия длилась недолго. Благодаря проискам бывшей тещи, имеющей свои виды на зятя, Гуэррино узнает, что его прекрасная жена...
Доп. информация: Русская звуковая дорожка взята с этой раздачи http://rutracker.org/forum/viewtopic.php?t=4833142 автору большое спасибо.
При пересборе двд были использованы программы:
PgcDemux - разделение компонентов диска на файлы
Muxman - мультиплексирование и авторинг DVD
VobBlanker - реавторинг DVD

Скрин завершения проекта

Бонусы: Трейлеры, галерея.
Сэмпл: http://sendfile.su/1218828
Тип релиза: DVD9 (Custom)
Контейнер: DVD-Video
Видео: PAL 16:9 (720x576) VBR Auto Pan&Scan, Auto Letterboxed
Аудио: Russian (Dolby AC3, 192 Кбит/сек, 2 ch)
Аудио 2: Italiano (Dolby AC3, 384 Кбит/сек, 2 ch)
Формат субтитров: prerendered (DVD/IDX+SUB)

DVDInfo

Size: 6.41 Gb ( 6 716 566 KBytes ) - DVD-9
Enabled regions: 1, 2, 3, 4, 5, 6, 7, 8
VTS_01 :
Play Length: 00:00:18
Video: PAL 4:3 (720x576) VBR
Audio:
English (Dolby AC3, 6 ch)
VTS_02 :
Play Length: 01:39:25
Video: PAL 16:9 (720x576) VBR, Auto Pan&Scan, Auto Letterboxed
Audio:
Russian (Dolby AC3, 2 ch)
Italiano (Dolby AC3, 2 ch)
Subtitles:
Russian
Deutsch
Deutsch
VTS_03 :
Play Length: 00:02:39
Video: PAL 16:9 (720x576) VBR, Auto Pan&Scan, Auto Letterboxed
Audio:
Deutsch (Dolby AC3, 2 ch)
VTS_04 :
Play Length: 00:03:12
Video: PAL 16:9 (720x576) VBR, Auto Pan&Scan, Auto Letterboxed
Audio:
Italiano (Dolby AC3, 2 ch)
VTS_05 :
Play Length: 00:02:14
Video: PAL 16:9 (720x576) VBR, Auto Pan&Scan, Auto Letterboxed
Audio:
Deutsch (Dolby AC3, 2 ch)
Menu Video:
PAL 4:3 (720x576) VBR
Menu English Language Unit :
Root Menu

MediaInfo

Общее
Полное имя : I:\DVD готовые\Nessuno e perfetto_1981\VIDEO_TS\VTS_02_1.VOB
Формат : MPEG-PS
Размер файла : 1024 Мбайт
Продолжительность : 16 м.
Режим общего битрейта : Переменный
Общий поток : 8707 Кбит/сек
Видео
Идентификатор : 224 (0xE0)
Формат : MPEG Video
Версия формата : Version 2
Профиль формата : Main@Main
Параметр BVOP формата : Да
Параметр матрицы формата : Выборочная
Параметр GOP формата : M=3, N=15
Продолжительность : 16 м.
Вид битрейта : Переменный
Битрейт : 7958 Кбит/сек
Максимальный битрейт : 9300 Кбит/сек
Ширина : 720 пикселей
Высота : 576 пикселей
Соотношение сторон : 16:9
Частота кадров : 25,000 кадров/сек
Стандарт вещания : PAL
Цветовое пространство : YUV
Субдискретизация насыщенности : 4:2:0
Битовая глубина : 8 бит
Тип развёртки : Чересстрочная
Порядок развёртки : Верхнее поле первое
Метод сжатия : С потерями
Бит/(Пиксели*Кадры) : 0.768
Временной код первого кадра : 00:00:00:00
Оригинал временного кода : Group of pictures header
Размер потока : 936 Мбайт (91%)
Коэффициенты матрицы : BT.601
Аудио #1
Идентификатор : 189 (0xBD)-128 (0x80)
Формат : AC-3
Формат/Информация : Audio Coding 3
Расширение режима : CM (complete main)
Параметр Endianness формата : Big
Режим смешивания : DVD-Video
Продолжительность : 16 м.
Вид битрейта : Постоянный
Битрейт : 192 Кбит/сек
Каналы : 2 канала
Расположение каналов : Front: L R
Частота : 48,0 КГц
Битовая глубина : 16 бит
Метод сжатия : С потерями
Размер потока : 22,6 Мбайт (2%)
Аудио #2
Идентификатор : 189 (0xBD)-129 (0x81)
Формат : AC-3
Формат/Информация : Audio Coding 3
Расширение режима : CM (complete main)
Параметр Endianness формата : Big
Режим смешивания : DVD-Video
Продолжительность : 16 м.
Вид битрейта : Постоянный
Битрейт : 384 Кбит/сек
Каналы : 2 канала
Расположение каналов : Front: L R
Частота : 48,0 КГц
Битовая глубина : 16 бит
Метод сжатия : С потерями
Размер потока : 45,2 Мбайт (4%)
Меню

Постеры и обложка

Скриншоты меню

Скриншоты

Показать сообщения:    

Текущее время: 21-Окт 07:28

Часовой пояс: UTC - 1


Вы не можете начинать темы
Вы не можете отвечать на сообщения
Вы не можете редактировать свои сообщения
Вы не можете удалять свои сообщения
Вы не можете голосовать в опросах
Вы не можете прикреплять файлы к сообщениям
Вы не можете скачивать файлы

!ВНИМАНИЕ!
Сайт не предоставляет электронные версии произведений, а занимается лишь коллекционированием и каталогизацией ссылок, присылаемых и публикуемых на форуме нашими читателями. Если вы являетесь правообладателем какого-либо представленного материала и не желаете, чтобы ссылка на него находилась в нашем каталоге, свяжитесь с нами, и мы незамедлительно удалим ее. Файлы для обмена на трекере предоставлены пользователями сайта, и администрация не несет ответственности за их содержание. Просьба не заливать файлы, защищенные авторскими правами, а также файлы нелегального содержания!