Ивановский Торрент трекер
Яндекс.Погода
 

[Цитировать]
HUNTER

Нибелунги: Зигфрид и Месть Кримхильды / Die Nibelungen: Siegfried & Kriemhilds Rache- Год выпуска: 1924
Страна: Германия
Жанр: драма
Продолжительность: 02:29:54 + 02:11:08
Перевод: Субтитры
Оригинальная аудиодорожка: Немецкая
Cубтитры: Русские, английские на немецкие интертитры-Режиссер: Фриц Ланг / Fritz Lang
В ролях: Пауль Рихтер, Маргарита Шён, Ханна Ральф, Теодор Лоос, Ганс Адалберт Шлеттов, Харди Фон Франсуа, Георг Джон, Юрий Юровский, Фриц Алберти, Грете Бергер, Эрвин Бисвангер, Бернхард Гёцке, Рудольф Кляйн-Рогге, Фрида Рихард, Георг Аугуст Кох, Гертруда Арнольд, Рудольф Ритнер, Ганс Карл Мюллер-Описание:
По мотивам средневековой германской эпической поэмы «Песнь о Нибелунгах».
Картина состоит из двух частей, которые отличаются друг от друга по стилю и тематике. В первом фильме "Зигфрид" герой становистя бессмертным и неуязвимым, искупавшись в крови поверженного дракона. После его смерти вдова героя ищет мести во втором фильме "Месть Кримхильды". В этой части она выходит замуж за гунна Аттилу для того, чтобы осуществить свой план. Фильм является ценнейшим памятником истории кино.-За синхронизацию субтитров спасибо Core_soul.
IMDb / IMDb | КиноПоиск / КиноПоиск | Сэмпл 1 / Сэмпл 2-Качество: BDRip 720p (tranc)
Контейнер: MKV
Видео: x264, 960x720 (1.33:1), 24 fps, 9433 / 8084 kbps
Аудио: AС3, 5.1, 48 kHz, 640 kbps
Формат субтитров: softsub (SRT)
Скриншоты
Die Nibelungen: Siegfried
Source vs tranc:



Die Nibelungen: Kriemhilds Rache
Source vs tranc:


MI
Die Nibelungen: Siegfried
nfo
Technical information:
RUNTIME.......: 02:29:54
SIZE..........: 10,7GB
VIDEO CODEC...: x264, L4.1, CRF
FRAMERATE.....: 24.000 fps
BITRATE.......: 9433 kbps
RESOLUTION....: 960x720
AUDIO1........: Dolby Digital, AC3 5.1 @ 640 kbps
SUBTITLES.....: English
CHAPTERS......: Yes
SOURCE........: 1924 1080p Blu-ray AVC DTS-HD MA 5.1-ESiR (thx DbAT)
ENCODER.......: chico99/tranc
THEATRE DATE..: 14/02/1924
RELEASE DATE..: 11/11/2012
x264 [info]: frame I:1370 Avg QP:18.09 size:146662
x264 [info]: frame P:37754 Avg QP:19.11 size: 79434
x264 [info]: frame B:176732 Avg QP:21.17 size: 43196
x264 [info]: consecutive B-frames: 1.7% 0.4% 1.7% 8.4% 17.8% 30.8% 16.7% 6.8% 7.6% 8.1%
encoded 215856 frames, 3.80 fps, 9636.61 kb/s
General
Unique ID : 181017061858920141868121770377741129466 (0x882E9E3474A2DD8D92DA418A029CD6FA)
Complete name : Die Nibelungen (1924)\Die.Nibelungen.Siegfried.1924.720p.BluRay.DD5.1.x264-tranc.mkv
Format : Matroska
Format version : Version 2
File size : 10.8 GiB
Duration : 2h 29mn
Overall bit rate : 10.3 Mbps
Movie name : Die Nibelungen: Siegfried (1924) – RuTracker
Encoded date : UTC 2014-06-03 15:32:56
Writing application : mkvmerge v6.1.0 ('Old Devil') built on Mar 2 2013 14:32:37
Writing library : libebml v1.3.0 + libmatroska v1.4.0
Attachment : Yes
Video
ID : 1
Format : AVC
Format/Info : Advanced Video Codec
Format profile : High@L4.1
Format settings, CABAC : Yes
Format settings, ReFrames : 9 frames
Codec ID : V_MPEG4/ISO/AVC
Duration : 2h 29mn
Bit rate : 9 434 Kbps
Width : 960 pixels
Height : 720 pixels
Display aspect ratio : 4:3
Frame rate mode : Constant
Frame rate : 24.000 fps
Color space : YUV
Chroma subsampling : 4:2:0
Bit depth : 8 bits
Scan type : Progressive
Bits/(Pixel*Frame) : 0.569
Stream size : 9.88 GiB (92%)
Title : Die Nibelungen: Siegfried 1924 720p BluRay DD5.1 x264-tranc
Writing library : x264 core 125 r2200 999b753
Encoding settings : cabac=1 / ref=9 / deblock=1:-3:-3 / analyse=0x3:0x133 / me=umh / subme=9 / psy=1 / psy_rd=0.95:0.05 / mixed_ref=1 / me_range=24 / chroma_me=1 / trellis=2 / 8x8dct=1 / cqm=0 / deadzone=21,11 / fast_pskip=0 / chroma_qp_offset=-3 / threads=6 / lookahead_threads=1 / sliced_threads=0 / nr=0 / decimate=0 / interlaced=0 / bluray_compat=0 / constrained_intra=0 / bframes=9 / b_pyramid=2 / b_adapt=2 / b_bias=0 / direct=3 / weightb=1 / open_gop=0 / weightp=2 / keyint=250 / keyint_min=24 / scenecut=40 / intra_refresh=0 / rc=crf / mbtree=0 / crf=17.0 / qcomp=0.60 / qpmin=0 / qpmax=69 / qpstep=4 / ip_ratio=1.40 / pb_ratio=1.30 / aq=1:0.70
Language : German
Default : Yes
Forced : No
Audio
ID : 2
Format : AC-3
Format/Info : Audio Coding 3
Mode extension : CM (complete main)
Format settings, Endianness : Big
Codec ID : A_AC3
Duration : 2h 29mn
Bit rate mode : Constant
Bit rate : 640 Kbps
Channel(s) : 6 channels
Channel positions : Front: L C R, Side: L R, LFE
Sampling rate : 48.0 KHz
Bit depth : 16 bits
Compression mode : Lossy
Stream size : 686 MiB (6%)
Language : German
Default : Yes
Forced : No
Text #1
ID : 3
Format : UTF-8
Codec ID : S_TEXT/UTF8
Codec ID/Info : UTF-8 Plain Text
Language : Russian
Default : Yes
Forced : No
Text #2
ID : 4
Format : UTF-8
Codec ID : S_TEXT/UTF8
Codec ID/Info : UTF-8 Plain Text
Language : English
Default : No
Forced : No
Menu
00:00:00.000 : en:00:00:00.000
00:01:13.000 : en:00:01:13.000
00:02:48.000 : en:00:02:48.000
00:23:58.250 : en:00:23:58.250
00:51:13.583 : en:00:51:13.583
01:07:36.250 : en:01:07:36.250
01:27:04.042 : en:01:27:04.042
01:48:30.750 : en:01:48:30.750
02:10:27.167 : en:02:10:27.167
Die Nibelungen Kriemhilds Rache
nfo
Technical information:
Die Nibelungen Kriemhilds Rache 1924 720p BluRay DD5.1 x264-tranc
Technical information:
RUNTIME.......: 02:11:08
SIZE..........: 8,15GB
VIDEO CODEC...: x264, L4.1, CRF
FRAMERATE.....: 24.000 fps
BITRATE.......: 8084 kbps
RESOLUTION....: 960x720
AUDIO1........: DD 5.1 @ 640 kbps
SUBTITLES.....: English
CHAPTERS......: Yes
SOURCE........: 1924 1080p Blu-ray AVC DTS-HD MA 5.1-ESiR (thx DbAT)
ENCODER.......: chico99/tranc
THEATRE DATE..: 14/02/1924
RELEASE DATE..: 19/11/2012
Before The Lord of the Rings, before Game of Thrones,
before Star Wars, there was Fritz Lang's Die Nibelungen,
a two- part, five-hour fantasy epic that undeniably helped
set the visual and dramatic tone for the genre. Though it
isn't as well-known as Lang's following film, Metropolis,
it's just as grand in scale, featuring innovative special
effects for its time and some remarkably enormous battle
sequences. Kino's new Blu-ray set is pretty epic too,
featuring a gorgeous new high definition remaster of both
films, a recreated mix of the original orchestral music,
and an hour-long documentary about the project's production
and legacy. Highly recommended!
x264 [info]: frame I:1265 Avg QP:18.72 size:126380
x264 [info]: frame P:31002 Avg QP:19.81 size: 69761
x264 [info]: frame B:156566 Avg QP:22.25 size: 37055
x264 [info]: consecutive B-frames: 1.1% 0.5% 1.5% 9.7% 13.3% 24.9% 14.7% 15.4% 10.6% 8.4%
encoded 188833 frames, 3.72 fps, 8260.41 kb/s
General
Unique ID : 248078898871392456597450170964338415028 (0xBAA2420BADBF04A6A7EB6CDDAACA15B4)
Complete name : Die Nibelungen (1924)\Die Nibelungen Kriemhilds Rache 1924 720p BluRay DD5.1 x264-tranc.mkv
Format : Matroska
Format version : Version 2
File size : 8.15 GiB
Duration : 2h 11mn
Overall bit rate : 8 902 Kbps
Movie name : Die Nibelungen: Kriemhilds Rache (1924) – RuTracker
Encoded date : UTC 2014-06-03 15:54:51
Writing application : mkvmerge v6.1.0 ('Old Devil') built on Mar 2 2013 14:32:37
Writing library : libebml v1.3.0 + libmatroska v1.4.0
Attachment : Yes
Video
ID : 1
Format : AVC
Format/Info : Advanced Video Codec
Format profile : High@L4.1
Format settings, CABAC : Yes
Format settings, ReFrames : 9 frames
Codec ID : V_MPEG4/ISO/AVC
Duration : 2h 11mn
Bit rate : 8 085 Kbps
Width : 960 pixels
Height : 720 pixels
Display aspect ratio : 4:3
Frame rate mode : Constant
Frame rate : 24.000 fps
Color space : YUV
Chroma subsampling : 4:2:0
Bit depth : 8 bits
Scan type : Progressive
Bits/(Pixel*Frame) : 0.487
Stream size : 7.41 GiB (91%)
Title : Die Nibelungen Kriemhilds Rache 1924 720p BluRay DD5.1 x264-tranc
Writing library : x264 core 125 r2200 999b753
Encoding settings : cabac=1 / ref=9 / deblock=1:-3:-3 / analyse=0x3:0x133 / me=umh / subme=9 / psy=1 / psy_rd=0.95:0.05 / mixed_ref=1 / me_range=24 / chroma_me=1 / trellis=2 / 8x8dct=1 / cqm=0 / deadzone=21,11 / fast_pskip=0 / chroma_qp_offset=-3 / threads=6 / lookahead_threads=1 / sliced_threads=0 / nr=0 / decimate=0 / interlaced=0 / bluray_compat=0 / constrained_intra=0 / bframes=9 / b_pyramid=2 / b_adapt=2 / b_bias=0 / direct=3 / weightb=1 / open_gop=0 / weightp=2 / keyint=250 / keyint_min=24 / scenecut=40 / intra_refresh=0 / rc=crf / mbtree=0 / crf=17.7 / qcomp=0.60 / qpmin=0 / qpmax=69 / qpstep=4 / ip_ratio=1.40 / pb_ratio=1.30 / aq=1:0.70
Language : German
Default : Yes
Forced : No
Audio
ID : 2
Format : AC-3
Format/Info : Audio Coding 3
Mode extension : CM (complete main)
Format settings, Endianness : Big
Codec ID : A_AC3
Duration : 2h 11mn
Bit rate mode : Constant
Bit rate : 640 Kbps
Channel(s) : 6 channels
Channel positions : Front: L C R, Side: L R, LFE
Sampling rate : 48.0 KHz
Bit depth : 16 bits
Compression mode : Lossy
Stream size : 600 MiB (7%)
Language : German
Default : Yes
Forced : No
Text #1
ID : 3
Format : UTF-8
Codec ID : S_TEXT/UTF8
Codec ID/Info : UTF-8 Plain Text
Language : Russian
Default : Yes
Forced : No
Text #2
ID : 4
Format : UTF-8
Codec ID : S_TEXT/UTF8
Codec ID/Info : UTF-8 Plain Text
Language : English
Default : No
Forced : No
Menu
00:00:00.000 : en:00:00:00.000
00:02:54.250 : en:00:02:54.250
00:19:54.125 : en:00:19:54.125
00:39:51.333 : en:00:39:51.333
00:54:03.708 : en:00:54:03.708
01:09:26.208 : en:01:09:26.208
01:26:12.125 : en:01:26:12.125
01:43:07.833 : en:01:43:07.833
02:10:02.625 : en:02:10:02.625


Показать сообщения:    

Текущее время: 14-Дек 15:12

Часовой пояс: UTC ± 0


Вы не можете начинать темы
Вы не можете отвечать на сообщения
Вы не можете редактировать свои сообщения
Вы не можете удалять свои сообщения
Вы не можете голосовать в опросах
Вы не можете прикреплять файлы к сообщениям
Вы не можете скачивать файлы

!ВНИМАНИЕ!
Сайт не предоставляет электронные версии произведений, а занимается лишь коллекционированием и каталогизацией ссылок, присылаемых и публикуемых на форуме нашими читателями. Если вы являетесь правообладателем какого-либо представленного материала и не желаете, чтобы ссылка на него находилась в нашем каталоге, свяжитесь с нами, и мы незамедлительно удалим ее. Файлы для обмена на трекере предоставлены пользователями сайта, и администрация не несет ответственности за их содержание. Просьба не заливать файлы, защищенные авторскими правами, а также файлы нелегального содержания!