Ивановский Торрент трекер
Яндекс.Погода
 

[Цитировать]
HUNTER

Не покидай меня, любовь. Страна: Россия
Студия: Медиа Prof Союз
Жанр: мелодрама
Год выпуска: 2014
Продолжительность: 01:35:11
Перевод: Не требуется
Cубтитры: нет
Режиссер: Роман Фокин
В ролях: Яна Шивкова, Владимир Шевельков, Максим Коновалов, Анна Банщикова, Никита Степанов, Василий Бойдак, Алексей Шеметовец, Василий Кубекин, Никита Скоморох, Алеся Пуховая
Описание: Любе 35 лет, и 15 из них она прожила одиноко, одна поднимала сына Степана. В деревне Любу уважают и любят и часто приходят к ней за помощью советом — Люба работает секретарем сельсовета. Привычный жизненный уклад Любы нарушает возвращение ее давнего ухажера — Виктора. Он пребывает в село в качестве нового участкового и тут же начинает ухлёстывать за Любой.
Доп.информация:
запись со спутника телеканал Россия HD
премьера (РФ) - 10 марта 2014

Сэмпл: http://rusfolder.com/40928406
Тип релиза: HDTV 1080i
Контейнер: TS
Видео: AVC/H.264, PAL, 1920x1080 (16:9), 8278 Кбит/сек, 25.000 fps
Аудио: русский, Mp2, 48000 Hz, 192 Кбит/сек, 2 ch
MediaInfo
Видео
Идентификатор : 306 (0x132)
Идентификатор меню : 1 (0x1)
Формат : AVC
Формат/Информация : Advanced Video Codec
Профиль формата : High@L4.0
Параметр CABAC формата : Да
Параметр ReFrames формата : 3 кадра
Идентификатор кодека : 27
Продолжительность : 1 ч. 35 м.
Битрейт : 8278 Кбит/сек
Ширина : 1920 пикселей
Высота : 1080 пикселей
Соотношение сторон : 16:9
Частота кадров : 25,000 кадров/сек
Стандарт вещания : Component
Цветовое пространство : YUV
Субдискретизация насыщенности : 4:2:0
Битовая глубина : 8 бит
Тип развёртки : Чересстрочная
Порядок развёртки : Верхнее поле первое
Бит/(Пиксели*Кадры) : 0.160
Размер потока : 5,50 Гбайт (93%)
Основные цвета : BT.709
Характеристики трансфера : BT.709
Коэффициенты матрицы : BT.709
Аудио
Идентификатор : 406 (0x196)
Идентификатор меню : 1 (0x1)
Формат : MPEG Audio
Версия формата : Version 1
Профиль формата : Layer 2
Идентификатор кодека : 3
Продолжительность : 1 ч. 35 м.
Вид битрейта : Постоянный
Битрейт : 192 Кбит/сек
Каналы : 2 канала
Частота : 48,0 КГц
Метод сжатия : С потерями
Размер потока : 131 Мбайт (2%)
Скриншот c названием фильма Скриншоты
Показать сообщения:    

Текущее время: 22-Окт 10:45

Часовой пояс: UTC - 1


Вы не можете начинать темы
Вы не можете отвечать на сообщения
Вы не можете редактировать свои сообщения
Вы не можете удалять свои сообщения
Вы не можете голосовать в опросах
Вы не можете прикреплять файлы к сообщениям
Вы не можете скачивать файлы

!ВНИМАНИЕ!
Сайт не предоставляет электронные версии произведений, а занимается лишь коллекционированием и каталогизацией ссылок, присылаемых и публикуемых на форуме нашими читателями. Если вы являетесь правообладателем какого-либо представленного материала и не желаете, чтобы ссылка на него находилась в нашем каталоге, свяжитесь с нами, и мы незамедлительно удалим ее. Файлы для обмена на трекере предоставлены пользователями сайта, и администрация не несет ответственности за их содержание. Просьба не заливать файлы, защищенные авторскими правами, а также файлы нелегального содержания!