Ивановский Торрент трекер
Яндекс.Погода
 

[Цитировать]
HUNTER

(Не) Пожиратель Душ | Soul Eater Not!
-Год выпуска: 2014
Страна: Япония
Жанр: приключения, комедия, фэнтези, сёнэн.
-Режиссёр: Хасимото Масакадзу.
Студия: BONES (подробнее...)

-Перевод:
Русские субтитры: [Shiranai Tenshi] (временные)-Описание: Действие начинается незадолго до событий основной серии, а сюжет рассказывает о Цугуми Харудори – алебарде, которая только-только поступила в Академию, где вместе обучаются Оружия (антропоморфные версии различных средств умерщвления, которые в бою принимают свой истинный облик) и Мейстеры, которые этими Оружиями пользуются. И так уж выходит, что героиню приписывают не к одному мейстеру, а сразу к двоим: мягкой Меме и высокомерной Ане... World Art.-Качество: HDTVRip | Формат: MP4 | Тип видео: без хардсаба | Продолжительность: ТВ (>12 эп.), 25 мин. | Видео: [Leopard-Raws]
Видео кодек: H.264
Аудио кодек: AAC
Видео: H.264; 1280x720; ~1304Kbps, 23.976fps; (8 bit)
Аудио: JAP, AAC; 44100Hz; ~192Kbps (2ch);

Скриншоты [превью]


-

Название эпизодов

01.Enrolling at DWMA!

-

MediaInfo


Общее
Полное имя : C:\Users\Home PC\Videos\Аниме\Весна\Soul Eater Not!\Soul Eater Not! - 01.mp4
Формат : MPEG-4
Профиль формата : Base Media
Идентификатор кодека : isom
Размер файла : 260 Мбайт
Продолжительность : 24 м.
Режим общего битрейта : Переменный
Общий поток : 1500 Кбит/сек
Дата кодирования : UTC 2014-04-09 02:09:34
Дата пометки : UTC 2014-04-09 02:09:34
Видео
Идентификатор : 1
Формат : AVC
Формат/Информация : Advanced Video Codec
Профиль формата : High@L4.1
Параметр CABAC формата : Да
Параметр ReFrames формата : 4 кадра
Идентификатор кодека : avc1
Идентификатор кодека/Информация : Advanced Video Coding
Продолжительность : 24 м.
Битрейт : 1304 Кбит/сек
Максимальный битрейт : 6429 Кбит/сек
Ширина : 1280 пикселей
Высота : 720 пикселей
Соотношение сторон : 16:9
Режим частоты кадров : Постоянный
Частота кадров : 23,976 кадра/сек
Цветовое пространство : YUV
Субдискретизация насыщенности : 4:2:0
Битовая глубина : 8 бит
Тип развёртки : Прогрессивная
Бит/(Пиксели*Кадры) : 0.059
Размер потока : 226 Мбайт (87%)
Заголовок : 264:fps=23.976@GPAC0.5.1-DEV-rev4283
Библиотека кодирования : x264 core 129 r2245+729M 1a52e03
Настройки программы : cabac=1 / ref=4 / deblock=1:1:-1 / analyse=0x3:0x113 / me=umh / subme=9 / psy=1 / fade_compensate=0.00 / psy_rd=1.00:0.00 / mixed_ref=1 / me_range=24 / chroma_me=1 / trellis=2 / 8x8dct=1 / cqm=0 / deadzone=21,11 / fast_pskip=1 / chroma_qp_offset=-2 / threads=8 / lookahead_threads=1 / sliced_threads=0 / nr=0 / decimate=1 / interlaced=0 / bluray_compat=0 / constrained_intra=0 / fgo=0 / bframes=9 / b_pyramid=2 / b_adapt=2 / b_bias=0 / direct=1 / weightb=1 / open_gop=0 / weightp=2 / keyint=240 / keyint_min=24 / scenecut=40 / intra_refresh=0 / rc=crf / mbtree=0 / crf=19.0 / qcomp=0.72 / qpmin=0 / qpmax=69 / qpstep=4 / ip_ratio=1.40 / pb_ratio=1.30 / aq=1:0.85
Дата кодирования : UTC 2014-04-09 02:09:34
Дата пометки : UTC 2014-04-09 02:09:36
Основные цвета : BT.709
Характеристики трансфера : BT.709
Коэффициенты матрицы : BT.709
Аудио
Идентификатор : 2
Формат : AAC
Формат/Информация : Advanced Audio Codec
Профиль формата : LC
Идентификатор кодека : 40
Продолжительность : 24 м.
Вид битрейта : Переменный
Битрейт : 192 Кбит/сек
Максимальный битрейт : 223 Кбит/сек
Каналы : 2 канала
Расположение каналов : Front: L R
Частота : 48,0 КГц
Метод сжатия : С потерями
Размер потока : 33,3 Мбайт (13%)
Язык : Japanese
Дата кодирования : UTC 2014-04-08 18:04:49
Дата пометки : UTC 2014-04-09 02:09:36
-Внимание! Это обновляемая раздача. Серии добавляются по мере выхода русских субтитров.-


Показать сообщения:    

Текущее время: 18-Дек 14:55

Часовой пояс: UTC ± 0


Вы не можете начинать темы
Вы не можете отвечать на сообщения
Вы не можете редактировать свои сообщения
Вы не можете удалять свои сообщения
Вы не можете голосовать в опросах
Вы не можете прикреплять файлы к сообщениям
Вы не можете скачивать файлы

!ВНИМАНИЕ!
Сайт не предоставляет электронные версии произведений, а занимается лишь коллекционированием и каталогизацией ссылок, присылаемых и публикуемых на форуме нашими читателями. Если вы являетесь правообладателем какого-либо представленного материала и не желаете, чтобы ссылка на него находилась в нашем каталоге, свяжитесь с нами, и мы незамедлительно удалим ее. Файлы для обмена на трекере предоставлены пользователями сайта, и администрация не несет ответственности за их содержание. Просьба не заливать файлы, защищенные авторскими правами, а также файлы нелегального содержания!