Важное объявление!
У Нас Все раздачи мультитрекерные, при нуле пиров в релизах, можете смело вставать на закачку!
 
Автор Сообщение

HUNTER

Стаж:
4 года 10 месяцев
Сообщений:
65542

Репутация: 101

[+] [-]
Вне форума [Профиль] [ЛС]

Нецелованная / Never Been Kissed
Страна: США
Жанр: драма, мелодрама, комедия
Год выпуска: 1999
Продолжительность: 01:37:31
Перевод: Профессиональный (многоголосый закадровый) 1 канал
Cубтитры: нет
Оригинальная аудиодорожка: нет
Режиссер: Раджа Госнелл / Raja Gosnell
В ролях: Дрю Бэрримор, Молли Шэннон, Джордан Лэдд, Марли Шелтон, Джереми Джордан, Грегори Спорледер, Джон С. Рейлли, Гэрри Маршалл, Шон Уэйлен, Дэвид Аркетт, Майкл Вартан, Джессика Альба, Брэндон Уильямс, Кросс Уильямс, Лили Собески
Описание: Джози Геллер - самая молодая журналистка в редакции большой газеты. Никто ее всерьез не воспринимает как бы она не старалась. Личная жизнью тоже не ладится: за двадцать пять лет ни одного парня.
Но несмотря ни на что Джози добивается права сделать репортаж о средней школе. Но репортаж должен описывать школу изнутри, глазами школьника. А теперь представьте себе что ждет двадцатипятилетнюю отличницу, выглядящую на семнадцать, с полным отсутствием жизненного опыта и навыков интимного общения в старшем классе обычной школы.
Сэмпл: http://multi-up.com/952990
Тип релиза: HDTV 1080i
Контейнер: TS
Видео: AVC, 1920x1080 (16/9), 25.000 fps, 11.5 Mbps (0.223 bit/pixel)
Аудио: MP2, 48.0 KHz, 2 ch, 192 Kbps, CBR (Russian)

MediaInfo

Общее
Идентификатор : 3 (0x3)
Полное имя : K:\МОИ РАЗДАЧИ\Нецелованная.TS
Формат : MPEG-TS
Размер файла : 8,58 Гбайт
Продолжительность : 1 ч. 37 м.
Режим общего битрейта : Переменный
Общий поток : 12,6 Мбит/сек
Видео
Идентификатор : 2141 (0x85D)
Идентификатор меню : 21004 (0x520C)
Формат : AVC
Формат/Информация : Advanced Video Codec
Профиль формата : Main@L4.0
Параметр CABAC формата : Да
Параметр ReFrames формата : 3 кадра
Идентификатор кодека : 27
Продолжительность : 1 ч. 37 м.
Битрейт : 11,8 Мбит/сек
Ширина : 1920 пикселей
Высота : 1080 пикселей
Соотношение сторон : 16:9
Частота кадров : 25,000 кадров/сек
Стандарт вещания : Component
Цветовое пространство : YUV
Субдискретизация насыщенности : 4:2:0
Битовая глубина : 8 бит
Тип развёртки : Чересстрочная
Бит/(Пиксели*Кадры) : 0.227
Размер потока : 8,03 Гбайт (94%)
Основные цвета : BT.709
Характеристики трансфера : BT.709
Коэффициенты матрицы : BT.709
Аудио
Идентификатор : 2142 (0x85E)
Идентификатор меню : 21004 (0x520C)
Формат : MPEG Audio
Версия формата : Version 1
Профиль формата : Layer 2
Идентификатор кодека : 4
Продолжительность : 1 ч. 37 м.
Вид битрейта : Постоянный
Битрейт : 192 Кбит/сек
Каналы : 2 канала
Частота : 48,0 КГц
Метод сжатия : С потерями
Задержка видео : -16 мс.
Размер потока : 134 Мбайт (2%)
Язык : Russian

Скриншоты



_________________
Показать сообщения:    

Текущее время: Сегодня 21:49

Часовой пояс: GMT



Вы не можете начинать темы
Вы не можете отвечать на сообщения
Вы не можете редактировать свои сообщения
Вы не можете удалять свои сообщения
Вы не можете голосовать в опросах
Вы не можете прикреплять файлы к сообщениям
Вы не можете скачивать файлы