Ивановский Торрент трекер
Яндекс.Погода
 

[Цитировать]
HUNTER

Нет пути / Дорога в небеса / No Highway / No Highway in the Sky
Страна: США
Студия: Twentieth Century-Fox Productions
Жанр: драма
Год выпуска: 1951
Продолжительность: 01:38:00
Перевод 1: Профессиональный (двухголосый закадровый) Светла
Перевод 2: Профессиональный (двухголосый закадровый) Рен-тв
Cубтитры: английские
Оригинальная аудиодорожка: английский
Режиссер: Генри Костер / Henry Koster
В ролях: Джеймс Стюарт, Марлен Дитрих, Глинис Джонс, Джек Хоукинс, Джанетт Скотт, Элизабет Аллан, Рональд Сквайр, Джилл Клиффорд, Бейзил Эпплби, Феликс Эйлмер…
Описание: Великобритания. Королевский авиационный исследовательский центр разрабатывает самолет марки Ренфир с оригинальным строением хвоста. Для работы над проектом приглашен специалист по металлам — Деннис Скотт, на испытательной площадке он знакомится с эксцентричным ученым Теодором Хоуни. Теодор утверждает, что по его расчетам новая модель может потерпеть аварию в виду усталости металла через 1440 часов эксплуатации, но компания не признает это, ведь самолет уже давно себя показал как надежная машина.
Когда происходит авария такого же самолета в Лабрадоре, руководители авиакомпании списали все на человеческий фактор. Для выяснений причин центр решает послать Хоуни, который на месте должен понять что произошло, ошибка пилота или усталость металла. Поднявшись на борт, инженер узнает от экипажа, что машина налетала уже почти весь свой ресурс. На борту ученый знакомится со знаменитой киноактрисой Моникой Тисдэйл. Мысль о том, что самолет может развалиться в любую минуту страшно пугает ученого и он начинает просить экипаж вернутся на землю немедленно, но никто, кроме Моники, не хочет его даже слушать… (Кинопоиск)
II Сэмпл II IMDB II
Тип релиза: WEB-DL 720p
Контейнер: MKV
Видео: AVC / 964x720 / 4:3 / 23.976fps / Bit rate 4067Kbps
Аудио 1: AC3 / 48.0 KHz / 2ch. / 192kbps / rus / dvo / Светла
Аудио 2: AC3 / 48.0 KHz / 2ch. / 192kbps / rus / dvo / Рен-тв
Аудио 3: AAC-LC / 48.0 KHz / 2ch. / 100kbps / eng
Формат субтитров: softsub (SRT)

MediaInfo

Общее
Уникальный идентификатор : 229672630576409757678914662507350896486 (0xACC956F42D0BDB639FAFF556AAFCAF66)
Полное имя : H:\!_Torrent\No.Highway.In.the.Sky.1951.WEB-DL.720p_by_vedigo.mkv
Формат : Matroska
Версия формата : Version 4 / Version 2
Размер файла : 3,17 Гбайт
Продолжительность : 1 ч. 38 м.
Общий поток : 4634 Кбит/сек
Название фильма : No.Highway.In.the.Sky.1951.WEB-DL.720p_by_vedigo
Дата кодирования : UTC 2015-08-26 11:08:05
Программа кодирования : mkvmerge v8.3.0 ('Over the Horizon') 64bit
Библиотека кодирования : libebml v1.3.1 + libmatroska v1.4.2
DURATION : 01:38:00.832000000
NUMBER_OF_FRAMES : 183776
NUMBER_OF_BYTES : 141139968
_STATISTICS_WRITING_APP : mkvmerge v8.3.0 ('Over the Horizon') 64bit
_STATISTICS_WRITING_DATE_UTC : 2015-08-26 11:08:05
_STATISTICS_TAGS : BPS DURATION NUMBER_OF_FRAMES NUMBER_OF_BYTES
Видео
Идентификатор : 1
Формат : AVC
Формат/Информация : Advanced Video Codec
Профиль формата : Main@L3.1
Параметр CABAC формата : Нет
Параметр ReFrames формата : 2 кадра
Идентификатор кодека : V_MPEG4/ISO/AVC
Продолжительность : 1 ч. 38 м.
Ширина : 964 пикселя
Высота : 720 пикселей
Соотношение сторон : 4:3
Режим частоты кадров : Постоянный
Частота кадров : 23,976 кадра/сек
Цветовое пространство : YUV
Субдискретизация насыщенности : 4:2:0
Битовая глубина : 8 бит
Тип развёртки : Прогрессивная
Заголовок : No.Highway.In.the.Sky.1951.WEB-DL.720p_by_vedigo
Default : Да
Forced : Нет
Цветовой диапазон : Limited
Основные цвета : BT.709
Характеристики трансфера : BT.709
Коэффициенты матрицы : BT.709
Аудио #1
Идентификатор : 2
Формат : AC-3
Формат/Информация : Audio Coding 3
Расширение режима : CM (complete main)
Параметр Endianness формата : Big
Идентификатор кодека : A_AC3
Продолжительность : 1 ч. 38 м.
Вид битрейта : Постоянный
Битрейт : 192 Кбит/сек
Каналы : 2 канала
Расположение каналов : Front: L R
Частота : 48,0 КГц
Метод сжатия : С потерями
Размер потока : 135 Мбайт (4%)
Заголовок : DVO @ Светла
Язык : Russian
Default : Да
Forced : Нет
Аудио #2
Идентификатор : 3
Формат : AC-3
Формат/Информация : Audio Coding 3
Расширение режима : CM (complete main)
Параметр Endianness формата : Big
Идентификатор кодека : A_AC3
Продолжительность : 1 ч. 38 м.
Вид битрейта : Постоянный
Битрейт : 192 Кбит/сек
Каналы : 2 канала
Расположение каналов : Front: L R
Частота : 48,0 КГц
Метод сжатия : С потерями
Размер потока : 135 Мбайт (4%)
Заголовок : DVO @ Рен-тв
Язык : Russian
Default : Нет
Forced : Нет
Аудио #3
Идентификатор : 4
Формат : AAC
Формат/Информация : Advanced Audio Codec
Профиль формата : LC
Идентификатор кодека : A_AAC
Продолжительность : 1 ч. 38 м.
Каналы : 2 канала
Расположение каналов : Front: L R
Частота : 48,0 КГц
Метод сжатия : С потерями
Заголовок : original
Язык : English
Default : Нет
Forced : Нет
Текст
Идентификатор : 5
Формат : UTF-8
Идентификатор кодека : S_TEXT/UTF8
Идентификатор кодека/Информация : UTF-8 Plain Text
Заголовок : subtitle eng
Язык : English
Default : Нет
Forced : Нет
Меню
00:00:00.000 : en:Main Titles / Honey's Theory
00:05:11.000 : en:Small Family
00:09:43.000 : en:Brain Child
00:18:13.000 : en:Pilot Error?
00:23:13.000 : en:Trouble In The Sky
00:30:14.000 : en:At Any Moment
00:37:46.000 : en:Last Minute Plans
00:43:34.000 : en:The Meaning Of Life
00:51:20.000 : en:My Way
00:56:10.000 : en:Grounded
01:02:53.000 : en:I Got Your Back
01:12:00.000 : en:Testing
01:15:24.000 : en:Unity
01:20:12.000 : en:Settling In
01:26:27.000 : en:Overload
01:32:05.000 : en:Truth / End Titles

Скриншоты


Показать сообщения:    

Текущее время: 17-Окт 01:17

Часовой пояс: UTC - 1


Вы не можете начинать темы
Вы не можете отвечать на сообщения
Вы не можете редактировать свои сообщения
Вы не можете удалять свои сообщения
Вы не можете голосовать в опросах
Вы не можете прикреплять файлы к сообщениям
Вы не можете скачивать файлы

!ВНИМАНИЕ!
Сайт не предоставляет электронные версии произведений, а занимается лишь коллекционированием и каталогизацией ссылок, присылаемых и публикуемых на форуме нашими читателями. Если вы являетесь правообладателем какого-либо представленного материала и не желаете, чтобы ссылка на него находилась в нашем каталоге, свяжитесь с нами, и мы незамедлительно удалим ее. Файлы для обмена на трекере предоставлены пользователями сайта, и администрация не несет ответственности за их содержание. Просьба не заливать файлы, защищенные авторскими правами, а также файлы нелегального содержания!